<?xml version="1.0" standalone="no"?>
<!DOCTYPE svg PUBLIC "-//W3C//DTD SVG 1.1//EN" "http://www.w3.org/Graphics/SVG/1.1/DTD/svg11.dtd" >
<svg xmlns="http://www.w3.org/2000/svg" xmlns:xlink="http://www.w3.org/1999/xlink" version="1.1">
<metadata>
Created by FontForge 20170731 at Thu Oct 20 13:54:50 2016
 By Aleksey,,,
Digitized data copyright 2012-2016, The Mozilla Foundation and Telefonica S.A.
</metadata>
<defs>
<font id="FiraSans-SemiBold" horiz-adv-x="560" >
  <font-face 
    font-family="Fira Sans SemiBold"
    font-weight="600"
    font-stretch="normal"
    units-per-em="1000"
    panose-1="2 11 6 3 5 0 0 2 0 4"
    ascent="800"
    descent="-200"
    x-height="530"
    cap-height="692"
    bbox="-777 -354 1360 1170"
    underline-thickness="50"
    underline-position="-200"
    unicode-range="U+000D-FEFF"
  />
<missing-glyph horiz-adv-x="666" 
d="M543 1050v-1400h-420v1400h420zM489 998h-311v-1296h311v1296zM324 451q111 0 111 -115q0 -104 -95 -118v-45q0 -11 -7.5 -17.5t-17.5 -6.5t-17.5 6.5t-7.5 17.5v84q53 3 72 19.5t19 57.5q0 33 -13 51t-48 18q-29 0 -52 -11q-8 -3 -13 -3q-24 0 -24 23q0 19 29.5 29
t63.5 10zM315 120q15 0 25 -10t10 -25q0 -16 -10 -26.5t-25 -10.5t-25 10.5t-10 26.5q0 15 10 25t25 10z" />
    <glyph glyph-name="fi" unicode="fi" horiz-adv-x="593" 
d="M298 757q89 0 169 -39l-42 -93q-53 25 -113 25q-48 0 -66 -17t-18 -56v-47h295v-530h-142v430h-153v-430h-142v430h-82v100h82v51q0 79 52.5 127.5t159.5 48.5z" />
    <glyph glyph-name="fl" unicode="fl" horiz-adv-x="622" 
d="M589 103l29 -101q-43 -18 -96 -18q-63 0 -97.5 36.5t-34.5 105.5v514q-45 12 -87 12t-58.5 -16.5t-16.5 -54.5v-51h108l-16 -100h-92v-430h-142v430h-82v100h82v53q0 77 51 125.5t148 48.5q56 0 116 -19l131 14v-613q0 -42 29 -42q16 0 28 6z" />
    <glyph glyph-name=".notdef" horiz-adv-x="666" 
d="M543 1050v-1400h-420v1400h420zM489 998h-311v-1296h311v1296zM324 451q111 0 111 -115q0 -104 -95 -118v-45q0 -11 -7.5 -17.5t-17.5 -6.5t-17.5 6.5t-7.5 17.5v84q53 3 72 19.5t19 57.5q0 33 -13 51t-48 18q-29 0 -52 -11q-8 -3 -13 -3q-24 0 -24 23q0 19 29.5 29
t63.5 10zM315 120q15 0 25 -10t10 -25q0 -16 -10 -26.5t-25 -10.5t-25 10.5t-10 26.5q0 15 10 25t25 10z" />
    <glyph glyph-name=".null" horiz-adv-x="0" 
 />
    <glyph glyph-name="nonmarkingreturn" horiz-adv-x="333" 
 />
    <glyph glyph-name="CR" unicode="&#xd;" horiz-adv-x="244" 
 />
    <glyph glyph-name="space" unicode=" " horiz-adv-x="244" 
 />
    <glyph glyph-name="exclam" unicode="!" horiz-adv-x="241" 
d="M195 692l-17 -443h-116l-19 443h152zM120 155q36 0 61 -25t25 -60t-25 -60.5t-61 -25.5q-35 0 -60 25.5t-25 60.5t25 60t60 25z" />
    <glyph glyph-name="quotedbl" unicode="&#x22;" horiz-adv-x="430" 
d="M69 417l-18 275h132l-18 -275h-96zM265 417l-18 275h132l-18 -275h-96z" />
    <glyph glyph-name="numbersign" unicode="#" horiz-adv-x="547" 
d="M532 442h-71l-26 -198h60v-96h-72l-20 -148h-118l20 148h-114l-20 -148h-118l20 148h-58v96h70l26 198h-59v96h72l18 136h118l-18 -136h114l18 136h118l-18 -136h58v-96zM317 244l26 198h-114l-26 -198h114z" />
    <glyph glyph-name="dollar" unicode="$" horiz-adv-x="545" 
d="M516 196q0 -76 -48.5 -130t-134.5 -70v-156h-106v150q-131 10 -214 93l74 80q73 -67 168 -67q52 0 83.5 24t31.5 67q0 40 -26 62t-102 45q-108 34 -154.5 81t-46.5 122q0 74 51 124t135 61v147h106v-148q93 -14 164 -80l-68 -79q-64 57 -146 57q-44 0 -70.5 -18.5
t-26.5 -53.5t26 -54.5t107 -44.5q100 -31 148.5 -78t48.5 -134z" />
    <glyph glyph-name="percent" unicode="%" horiz-adv-x="851" 
d="M613 718l90 -57l-464 -699l-89 57zM207 687q76 0 125 -48.5t49 -128.5t-49 -128.5t-125 -48.5q-75 0 -124.5 48.5t-49.5 128.5t49.5 128.5t124.5 48.5zM207 600q-69 0 -69 -90t69 -90q68 0 68 90t-68 90zM644 338q76 0 125 -48.5t49 -128.5t-49 -128.5t-125 -48.5
q-75 0 -125 49t-50 128q0 80 50 128.5t125 48.5zM644 251q-69 0 -69 -90t69 -90q68 0 68 90t-68 90z" />
    <glyph glyph-name="ampersand" unicode="&#x26;" horiz-adv-x="753" 
d="M310 708q95 0 151 -44.5t56 -113.5q0 -58 -35 -102.5t-100 -85.5l146 -136q32 68 50 150l121 -36q-37 -110 -91 -189l119 -106l-118 -61l-83 80q-90 -80 -219 -80q-108 0 -175 53t-67 140q0 61 33 106t103 90q-53 51 -74.5 87.5t-21.5 83.5q0 70 53 117t152 47zM312 614
q-33 0 -51.5 -19t-18.5 -50q0 -28 14 -51.5t48 -56.5q77 49 77 108q0 32 -18.5 50.5t-50.5 18.5zM282 296q-69 -48 -69 -112q0 -45 32 -71t85 -26q69 0 123 46z" />
    <glyph glyph-name="quotesingle" unicode="'" horiz-adv-x="234" 
d="M69 417l-18 275h132l-18 -275h-96z" />
    <glyph glyph-name="parenleft" unicode="(" horiz-adv-x="324" 
d="M215 855l91 -61q-72 -104 -105 -204.5t-33 -239.5t33 -239.5t105 -204.5l-91 -61q-39 54 -59.5 84t-50 83.5t-44.5 98t-26.5 107.5t-11.5 132t11.5 132t26.5 107.5t44.5 98t50 83.5t59.5 84z" />
    <glyph glyph-name="parenright" unicode=")" horiz-adv-x="324" 
d="M109 855q39 -54 59.5 -84t50 -83.5t44.5 -98t26.5 -107.5t11.5 -132t-11.5 -132t-26.5 -107.5t-44.5 -98t-50 -83.5t-59.5 -84l-90 61q72 104 105 204.5t33 239.5t-33 239.5t-105 204.5z" />
    <glyph glyph-name="asterisk" unicode="*" horiz-adv-x="447" 
d="M436 542l-144 -26l102 -105l-101 -74l-70 128l-68 -129l-101 74l100 105l-143 26l38 116l131 -62l-19 146h125l-19 -148l130 65z" />
    <glyph glyph-name="plus" unicode="+" horiz-adv-x="523" 
d="M321 542v-155h150v-111h-150v-154h-120v154h-149v111h149v155h120z" />
    <glyph glyph-name="comma" unicode="," horiz-adv-x="240" 
d="M119 155q37 0 61.5 -24.5t24.5 -60.5q0 -33 -28 -98l-65 -146h-83l42 174q-37 24 -37 70q0 36 24.5 60.5t60.5 24.5z" />
    <glyph glyph-name="hyphen" unicode="-" horiz-adv-x="406" 
d="M48 257v112h310v-112h-310z" />
    <glyph glyph-name="period" unicode="." horiz-adv-x="240" 
d="M119 155q36 0 61 -25t25 -60t-25 -60.5t-61 -25.5q-35 0 -60 25.5t-25 60.5t25 60t60 25z" />
    <glyph glyph-name="slash" unicode="/" horiz-adv-x="520" 
d="M316 814l123 -28l-234 -896l-124 29z" />
    <glyph glyph-name="zero" unicode="0" horiz-adv-x="579" 
d="M289 687q122 0 185 -90.5t63 -260.5t-63.5 -261t-184.5 -91t-184 91t-63 261t63 260.5t184 90.5zM289 581q-54 0 -77.5 -55t-23.5 -190t23.5 -190t77.5 -55t78 54.5t24 190.5q0 137 -24 191t-78 54z" />
    <glyph glyph-name="one" unicode="1" horiz-adv-x="456" 
d="M367 674v-674h-139v534l-148 -91l-62 96l224 135h125z" />
    <glyph glyph-name="two" unicode="2" horiz-adv-x="512" 
d="M236 687q104 0 164.5 -54.5t60.5 -136.5q0 -81 -55 -159t-213 -227h283l-16 -110h-429v103q180 180 232 248t52 133q0 43 -25 68t-67 25q-68 0 -127 -71l-85 68q86 113 225 113z" />
    <glyph glyph-name="three" unicode="3" horiz-adv-x="515" 
d="M235 687q103 0 161 -48.5t58 -122.5q0 -61 -35 -101.5t-97 -57.5q68 -7 111 -49t43 -117q0 -89 -67 -148t-184 -59q-143 0 -224 100l77 74q64 -64 139 -64q52 0 82.5 28t30.5 78q0 54 -29 78t-87 24h-55l17 100h37q47 0 75 25t28 70q0 39 -25.5 61t-69.5 22
q-72 0 -133 -58l-71 77q93 88 218 88z" />
    <glyph glyph-name="four" unicode="4" horiz-adv-x="557" 
d="M534 258v-108h-79v-150h-138l-1 150h-285v96l194 443l120 -45l-167 -386h140l15 165h122v-165h79z" />
    <glyph glyph-name="five" unicode="5" horiz-adv-x="527" 
d="M463 674l-17 -103h-249v-155q49 23 102 23q85 0 139 -58.5t54 -159.5q0 -106 -71 -171.5t-187 -65.5q-130 0 -218 98l80 75q56 -64 134 -64q55 0 85.5 33t30.5 95q0 119 -102 119q-40 0 -84 -24h-99v358h402z" />
    <glyph glyph-name="six" unicode="6" horiz-adv-x="556" 
d="M336 451q84 0 138 -58.5t54 -162.5q0 -107 -65.5 -176.5t-171.5 -69.5q-127 0 -188 86.5t-61 239.5q0 171 76.5 274t207.5 103q87 0 150 -43l-52 -87q-46 27 -95 27q-61 0 -98 -53t-42 -149q60 69 147 69zM292 88q46 0 69.5 37t23.5 103t-21.5 94.5t-64.5 28.5
q-61 0 -110 -62q2 -108 25.5 -154.5t77.5 -46.5z" />
    <glyph glyph-name="seven" unicode="7" horiz-adv-x="462" 
d="M441 674v-98l-248 -591l-129 43l230 538h-278v108h425z" />
    <glyph glyph-name="eight" unicode="8" horiz-adv-x="574" 
d="M404 362q136 -64 136 -180q0 -85 -69.5 -141.5t-186.5 -56.5q-115 0 -183 55.5t-68 139.5q0 114 127 170q-100 57 -100 159q0 81 64.5 130t162.5 49t162.5 -46t64.5 -127q0 -94 -110 -152zM288 590q-42 0 -66 -21.5t-24 -62.5q0 -37 22 -59.5t70 -41.5l20 -7
q66 42 66 109q0 38 -23 60.5t-65 22.5zM288 88q52 0 80.5 26t28.5 69t-25 68t-89 48l-32 11q-75 -39 -75 -125q0 -45 30 -71t82 -26z" />
    <glyph glyph-name="nine" unicode="9" horiz-adv-x="552" 
d="M273 687q118 0 180.5 -71t62.5 -190q0 -202 -95 -303.5t-310 -149.5l-30 101q132 33 199.5 85.5t83.5 145.5q-54 -69 -142 -69q-81 0 -136 60.5t-55 160.5q0 104 69 167t173 63zM263 338q64 0 108 64q1 99 -21.5 140.5t-76.5 41.5q-47 0 -73.5 -31.5t-26.5 -91.5
q0 -123 90 -123z" />
    <glyph glyph-name="colon" unicode=":" horiz-adv-x="240" 
d="M119 506q36 0 61 -25t25 -60t-25 -60.5t-61 -25.5q-35 0 -60 25.5t-25 60.5t25 60t60 25zM119 155q36 0 61 -25t25 -60t-25 -60.5t-61 -25.5q-35 0 -60 25.5t-25 60.5t25 60t60 25z" />
    <glyph glyph-name="semicolon" unicode=";" horiz-adv-x="240" 
d="M119 506q36 0 61 -25t25 -60t-25 -60.5t-61 -25.5q-35 0 -60 25.5t-25 60.5t25 60t60 25zM119 155q37 0 61.5 -24.5t24.5 -60.5q0 -33 -28 -98l-65 -146h-83l42 174q-37 24 -37 70q0 36 24.5 60.5t60.5 24.5z" />
    <glyph glyph-name="less" unicode="&#x3c;" horiz-adv-x="514" 
d="M430 570l46 -103l-319 -134l319 -132l-46 -105l-392 173v128z" />
    <glyph glyph-name="equal" unicode="=" horiz-adv-x="514" 
d="M52 379v111h411v-111h-411zM52 173v111h411v-111h-411z" />
    <glyph glyph-name="greater" unicode="&#x3e;" horiz-adv-x="514" 
d="M84 570l392 -173v-128l-392 -173l-46 105l319 132l-319 134z" />
    <glyph glyph-name="question" unicode="?" horiz-adv-x="476" 
d="M246 708q101 0 156.5 -47.5t55.5 -116.5q0 -45 -18.5 -78t-45 -52.5t-53 -37t-45 -41.5t-18.5 -56v-30h-131v35q0 40 12 71.5t30 49.5t39 34t39 27t30 28t12 37q0 31 -20.5 47.5t-56.5 16.5q-68 0 -122 -63l-92 71q91 105 228 105zM214 155q36 0 61 -25t25 -60t-25 -60.5
t-61 -25.5t-60.5 25t-24.5 61q0 35 24.5 60t60.5 25z" />
    <glyph glyph-name="at" unicode="@" horiz-adv-x="1020" 
d="M527 500q88 0 169 -44v-249q0 -61 12 -85.5t40 -24.5q89 0 89 215q0 137 -78.5 213.5t-232.5 76.5q-160 0 -251 -99.5t-91 -260.5q0 -164 89 -259.5t254 -95.5q99 0 195 35l35 -100q-112 -42 -231 -42q-214 0 -343.5 125.5t-129.5 335.5q0 203 133 335t340 132
q203 0 322 -115.5t119 -278.5q0 -136 -57.5 -222.5t-156.5 -86.5q-55 0 -88.5 30.5t-42.5 71.5q-44 -98 -144 -98q-88 0 -134 61t-46 162q0 125 61 196.5t168 71.5zM496 100q54 0 79 60v238q-27 11 -52 11q-96 0 -96 -177q0 -70 16.5 -101t52.5 -31z" />
    <glyph glyph-name="A" unicode="A" horiz-adv-x="586" 
d="M439 0l-39 155h-217l-39 -155h-153l213 692h179l212 -692h-156zM211 264h161l-81 319z" />
    <glyph glyph-name="B" unicode="B" horiz-adv-x="615" 
d="M427 366q157 -30 157 -165q0 -109 -78 -155t-217 -46h-216v692h189q292 0 292 -177q0 -61 -36.5 -98.5t-90.5 -50.5zM276 586h-56v-175h72q112 0 112 91q0 46 -31 65t-97 19zM290 109q69 0 105 20.5t36 77.5q0 104 -128 104h-83v-202h70z" />
    <glyph glyph-name="C" unicode="C" horiz-adv-x="571" 
d="M346 708q116 0 207 -75l-73 -85q-60 49 -126 49q-74 0 -117.5 -60.5t-43.5 -189.5q0 -126 43.5 -186.5t118.5 -60.5q66 0 138 56l68 -85q-85 -87 -212 -87q-142 0 -226.5 95t-84.5 268q0 170 86.5 265.5t221.5 95.5z" />
    <glyph glyph-name="D" unicode="D" horiz-adv-x="650" 
d="M254 692q60 0 108 -8t96 -30.5t80.5 -60t52.5 -99.5t20 -145q0 -100 -28.5 -171.5t-79 -108.5t-107 -53t-125.5 -16h-198v692h181zM277 584h-57v-476h60q85 0 131.5 52.5t46.5 188.5q0 72 -13.5 120t-40 72t-56.5 33.5t-71 9.5z" />
    <glyph glyph-name="E" unicode="E" horiz-adv-x="528" 
d="M486 692l-16 -107h-250v-180h218v-106h-218v-191h268v-108h-415v692h413z" />
    <glyph glyph-name="F" unicode="F" horiz-adv-x="488" 
d="M73 0v692h402l-16 -107h-239v-196h208v-107h-208v-282h-147z" />
    <glyph glyph-name="G" unicode="G" horiz-adv-x="641" 
d="M362 708q128 0 226 -83l-77 -80q-71 54 -143 54q-79 0 -127.5 -62.5t-48.5 -190.5q0 -135 37.5 -193.5t116.5 -58.5q57 0 103 25v169h-97l-15 107h255v-341q-114 -70 -243 -70q-153 0 -232 92t-79 271q0 170 92 265.5t232 95.5z" />
    <glyph glyph-name="H" unicode="H" horiz-adv-x="669" 
d="M449 0v303h-229v-303h-147v692h147v-273h229v273h147v-692h-147z" />
    <glyph glyph-name="I" unicode="I" horiz-adv-x="294" 
d="M220 692v-692h-147v692h147z" />
    <glyph glyph-name="J" unicode="J" horiz-adv-x="314" 
d="M245 692v-589q0 -115 -55.5 -173.5t-157.5 -91.5l-39 105q64 25 84.5 61t20.5 104v584h147z" />
    <glyph glyph-name="K" unicode="K" horiz-adv-x="622" 
d="M220 692v-692h-147v692h147zM613 692l-231 -312l249 -380h-172l-233 369l230 323h157z" />
    <glyph glyph-name="L" unicode="L" horiz-adv-x="509" 
d="M220 692v-574h274l-16 -118h-405v692h147z" />
    <glyph glyph-name="M" unicode="M" horiz-adv-x="784" 
d="M691 692l53 -692h-144l-15 281q-10 169 -6 282l-117 -489h-139l-125 490q8 -130 0 -286l-15 -278h-143l54 692h187l114 -477l107 477h189z" />
    <glyph glyph-name="N" unicode="N" horiz-adv-x="668" 
d="M595 692v-692h-189l-220 549q20 -155 20 -280v-269h-133v692h185l224 -550q-20 134 -20 246v304h133z" />
    <glyph glyph-name="O" unicode="O" horiz-adv-x="691" 
d="M346 708q144 0 225.5 -94.5t81.5 -267.5q0 -170 -82 -266t-225 -96q-144 0 -226 95t-82 267q0 169 82.5 265.5t225.5 96.5zM346 598q-76 0 -114.5 -60t-38.5 -192q0 -252 153 -252q76 0 114 59.5t38 192.5t-38 192.5t-114 59.5z" />
    <glyph glyph-name="P" unicode="P" horiz-adv-x="595" 
d="M287 692q135 0 209.5 -56t74.5 -167q0 -116 -74 -174.5t-198 -58.5h-79v-236h-147v692h214zM287 344q64 0 98 29t34 96q0 117 -134 117h-65v-242h67z" />
    <glyph glyph-name="Q" unicode="Q" horiz-adv-x="691" 
d="M491 43q114 0 200 -62l-89 -117q-59 61 -117.5 92t-147.5 31q-138 0 -218.5 94t-80.5 265q0 169 82.5 265.5t225.5 96.5q144 0 225.5 -94.5t81.5 -267.5q0 -213 -162 -303zM193 346q0 -252 153 -252q76 0 114 59.5t38 192.5t-38 192.5t-114 59.5t-114.5 -60t-38.5 -192z
" />
    <glyph glyph-name="R" unicode="R" horiz-adv-x="614" 
d="M443 0l-148 271h-75v-271h-147v692h216q279 0 279 -207q0 -68 -33.5 -112t-103.5 -75l179 -298h-167zM220 587v-212h77q119 0 119 110q0 53 -31.5 77.5t-98.5 24.5h-66z" />
    <glyph glyph-name="S" unicode="S" horiz-adv-x="565" 
d="M284 708q140 0 233 -87l-70 -81q-71 58 -153 58q-46 0 -73.5 -19.5t-27.5 -55.5t27.5 -56.5t111.5 -46.5q103 -33 154 -81.5t51 -138.5q0 -97 -72 -156.5t-196 -59.5q-157 0 -256 97l75 83q82 -69 177 -69q54 0 86.5 25t32.5 70q0 42 -27 64.5t-105 46.5
q-113 35 -161.5 84t-48.5 128q0 88 68 141.5t174 53.5z" />
    <glyph glyph-name="T" unicode="T" horiz-adv-x="534" 
d="M532 692l-16 -115h-175v-577h-147v577h-184v115h522z" />
    <glyph glyph-name="U" unicode="U" horiz-adv-x="654" 
d="M590 692v-464q0 -109 -68.5 -176.5t-195.5 -67.5q-128 0 -195.5 66.5t-67.5 177.5v464h147v-457q0 -139 116 -139q117 0 117 139v457h147z" />
    <glyph glyph-name="V" unicode="V" horiz-adv-x="567" 
d="M575 692l-199 -692h-179l-206 692h157l141 -570l136 570h150z" />
    <glyph glyph-name="W" unicode="W" horiz-adv-x="842" 
d="M828 692l-121 -692h-191l-96 541l-101 -541h-186l-120 692h147l79 -578l105 578h155l101 -578l89 578h139z" />
    <glyph glyph-name="X" unicode="X" horiz-adv-x="571" 
d="M371 373l202 -373h-162l-129 274l-127 -274h-157l197 368l-181 324h161l109 -231l114 231h156z" />
    <glyph glyph-name="Y" unicode="Y" horiz-adv-x="583" 
d="M587 692l-222 -431v-261h-147v260l-222 432h161l138 -314l137 314h155z" />
    <glyph glyph-name="Z" unicode="Z" horiz-adv-x="539" 
d="M503 692v-113l-310 -460h315l-16 -119h-471v111l316 465h-284v116h450z" />
    <glyph glyph-name="bracketleft" unicode="[" horiz-adv-x="323" 
d="M292 821v-108h-116v-727h116v-107h-251v942h251z" />
    <glyph glyph-name="backslash" unicode="\" horiz-adv-x="520" 
d="M204 814l235 -895l-124 -29l-234 896z" />
    <glyph glyph-name="bracketright" unicode="]" horiz-adv-x="323" 
d="M282 821v-942h-251v107h116v728h-116v107h251z" />
    <glyph glyph-name="asciicircum" unicode="^" horiz-adv-x="554" 
d="M342 843l189 -316h-141l-114 207l-110 -207h-143l189 316h130z" />
    <glyph glyph-name="underscore" unicode="_" horiz-adv-x="520" 
d="M11 -164v113h498v-113h-498z" />
    <glyph glyph-name="grave" unicode="`" horiz-adv-x="330" 
d="M87 827l213 -128l-40 -73l-230 92z" />
    <glyph glyph-name="a" unicode="a" horiz-adv-x="547" 
d="M475 147q0 -31 9 -45.5t30 -21.5l-30 -94q-93 8 -122 78q-52 -80 -159 -80q-79 0 -125.5 45.5t-46.5 118.5q0 87 63 133t181 46h61v26q0 49 -22 68t-73 19q-56 0 -140 -28l-32 95q99 39 196 39q210 0 210 -185v-214zM242 86q60 0 94 59v101h-47q-115 0 -115 -86
q0 -35 17.5 -54.5t50.5 -19.5z" />
    <glyph glyph-name="b" unicode="b" horiz-adv-x="596" 
d="M357 546q93 0 144.5 -74t51.5 -207q0 -125 -56.5 -203t-153.5 -78q-87 0 -139 68l-8 -52h-126v741l142 16v-284q54 73 145 73zM303 89q102 0 102 176q0 97 -24.5 136.5t-70.5 39.5q-57 0 -98 -68v-227q35 -57 91 -57z" />
    <glyph glyph-name="c" unicode="c" horiz-adv-x="478" 
d="M291 546q102 0 176 -64l-62 -84q-50 38 -104 38q-113 0 -113 -174q0 -164 112 -164q47 0 105 37l62 -89q-76 -62 -174 -62q-118 0 -186.5 75t-68.5 202t69 206t184 79z" />
    <glyph glyph-name="d" unicode="d" horiz-adv-x="599" 
d="M387 757l142 -16v-741h-125l-8 65q-56 -81 -152 -81q-98 0 -149.5 75.5t-51.5 205.5q0 124 59 202.5t156 78.5q74 0 129 -53v264zM286 90q58 0 101 64v237q-42 50 -92 50q-104 0 -104 -176q0 -175 95 -175z" />
    <glyph glyph-name="e" unicode="e" horiz-adv-x="551" 
d="M518 277q0 -10 -3 -55h-331q7 -72 39 -102t87 -30q63 0 129 46l59 -80q-89 -72 -201 -72q-125 0 -192 75t-67 203q0 124 64 204t177 80t176 -71t63 -198zM377 311v6q0 132 -95 132q-88 0 -98 -138h193z" />
    <glyph glyph-name="f" unicode="f" horiz-adv-x="351" 
d="M297 651q-36 0 -51.5 -17t-15.5 -55v-49h126l-16 -100h-110v-430h-142v430h-84v100h84v53q0 77 50.5 125.5t143.5 48.5q74 0 140 -32l-39 -94q-43 20 -86 20z" />
    <glyph glyph-name="g" unicode="g" horiz-adv-x="544" 
d="M509 610l35 -109q-52 -20 -153 -20q50 -22 74 -54.5t24 -81.5q0 -79 -59 -128.5t-159 -49.5q-35 0 -62 7q-20 -13 -20 -35q0 -35 61 -35h81q89 0 143 -42.5t54 -109.5q0 -81 -69.5 -126.5t-200.5 -45.5q-138 0 -192.5 42t-54.5 127h127q0 -39 25 -55.5t98 -16.5
q69 0 96.5 17t27.5 48q0 58 -83 58h-78q-79 0 -118 29.5t-39 74.5q0 60 62 99q-94 51 -94 151q0 87 62.5 139.5t163.5 52.5q82 -2 135 14t113 50zM264 451q-40 0 -63.5 -25.5t-23.5 -69.5q0 -45 23.5 -71t64.5 -26q87 0 87 99q0 93 -88 93z" />
    <glyph glyph-name="h" unicode="h" horiz-adv-x="579" 
d="M366 546q69 0 108.5 -42.5t39.5 -117.5v-386h-142v362q0 43 -15 60.5t-43 17.5q-56 0 -102 -73v-367h-142v741l142 15v-286q65 76 154 76z" />
    <glyph glyph-name="i" unicode="i" horiz-adv-x="282" 
d="M140 803q38 0 62.5 -23.5t24.5 -59.5t-24.5 -59.5t-62.5 -23.5t-62 23.5t-24 59.5t24 59.5t62 23.5zM212 530v-530h-142v530h142z" />
    <glyph glyph-name="j" unicode="j" horiz-adv-x="281" 
d="M139 803q38 0 62.5 -23.5t24.5 -59.5t-24.5 -59.5t-62.5 -23.5t-62 23.5t-24 59.5t24 59.5t62 23.5zM211 530v-477q0 -61 -14 -106t-42.5 -76t-62 -51t-83.5 -39l-47 103q58 27 82.5 59t24.5 101v486h142z" />
    <glyph glyph-name="k" unicode="k" horiz-adv-x="542" 
d="M212 757v-757h-142v741zM534 530l-169 -233l184 -297h-161l-171 290l170 240h147z" />
    <glyph glyph-name="l" unicode="l" horiz-adv-x="296" 
d="M202 -16q-65 0 -101 37.5t-36 106.5v613l142 16v-625q0 -35 29 -35q16 0 28 6l29 -101q-41 -18 -91 -18z" />
    <glyph glyph-name="m" unicode="m" horiz-adv-x="848" 
d="M643 546q63 0 101.5 -43t38.5 -117v-386h-142v362q0 78 -52 78q-28 0 -49 -18t-43 -56v-366h-142v362q0 78 -52 78q-50 0 -91 -74v-366h-142v530h123l11 -66q62 82 154 82q45 0 78 -22.5t48 -63.5q66 86 159 86z" />
    <glyph glyph-name="n" unicode="n" horiz-adv-x="579" 
d="M366 546q70 0 109 -42.5t39 -117.5v-386h-142v362q0 43 -14.5 60.5t-43.5 17.5q-56 0 -102 -74v-366h-142v530h123l11 -67q67 83 162 83z" />
    <glyph glyph-name="o" unicode="o" horiz-adv-x="584" 
d="M293 546q119 0 186 -74.5t67 -206.5q0 -127 -68 -204t-186 -77q-119 0 -186.5 74.5t-67.5 206.5q0 128 68 204.5t187 76.5zM293 440q-107 0 -107 -175t106 -175t106 175t-105 175z" />
    <glyph glyph-name="p" unicode="p" horiz-adv-x="596" 
d="M356 546q100 0 148.5 -73.5t48.5 -206.5q0 -125 -56 -203.5t-154 -78.5q-81 0 -131 57v-245l-142 -16v750h125l7 -62q61 78 154 78zM301 90q104 0 104 175q0 96 -23 136t-70 40q-59 0 -100 -68v-231q34 -52 89 -52z" />
    <glyph glyph-name="q" unicode="q" horiz-adv-x="599" 
d="M406 530h123v-750l-142 16v258q-55 -70 -143 -70q-98 0 -149.5 75.5t-51.5 205.5q0 125 58.5 203t156.5 78q81 0 140 -65zM286 90q58 0 101 64v237q-42 50 -91 50q-105 0 -105 -176q0 -175 95 -175z" />
    <glyph glyph-name="r" unicode="r" horiz-adv-x="397" 
d="M344 545q24 0 53 -8l-24 -137q-28 7 -47 7q-47 0 -73 -33t-41 -100v-274h-142v530h123l13 -103q19 56 55.5 87t82.5 31z" />
    <glyph glyph-name="s" unicode="s" horiz-adv-x="479" 
d="M246 546q112 0 192 -64l-54 -81q-67 42 -132 42q-35 0 -54 -13t-19 -35q0 -24 21.5 -38t89.5 -34q84 -23 125 -61.5t41 -105.5q0 -80 -65.5 -126t-163.5 -46q-132 0 -216 77l70 78q67 -52 142 -52q40 0 63.5 15.5t23.5 42.5q0 30 -22 45t-95 35q-157 44 -157 163
q0 69 57.5 113.5t152.5 44.5z" />
    <glyph glyph-name="t" unicode="t" horiz-adv-x="380" 
d="M338 115l49 -90q-59 -41 -138 -41q-166 2 -166 182v264h-79v100h79v116l142 17v-133h122l-14 -100h-108v-261q0 -38 13 -55t40 -17t60 18z" />
    <glyph glyph-name="u" unicode="u" horiz-adv-x="574" 
d="M504 530v-530h-123l-7 71q-56 -87 -161 -87q-72 0 -110 43.5t-38 121.5v381h142v-363q0 -42 14 -59.5t44 -17.5q57 0 97 69v371h142z" />
    <glyph glyph-name="v" unicode="v" horiz-adv-x="508" 
d="M510 530l-170 -530h-169l-173 530h154l105 -419l107 419h146z" />
    <glyph glyph-name="w" unicode="w" horiz-adv-x="741" 
d="M733 530l-113 -530h-173l-76 403l-76 -403h-171l-116 530h143l65 -425l88 425h142l79 -425l72 425h136z" />
    <glyph glyph-name="x" unicode="x" horiz-adv-x="505" 
d="M338 284l174 -284h-163l-101 205l-99 -205h-156l174 279l-156 251h160l83 -176l81 176h152z" />
    <glyph glyph-name="y" unicode="y" horiz-adv-x="512" 
d="M514 530l-171 -531q-32 -101 -100.5 -156t-185.5 -63l-15 102q76 10 111.5 36t58.5 82h-49l-165 530h151l106 -438l112 438h147z" />
    <glyph glyph-name="z" unicode="z" horiz-adv-x="454" 
d="M428 530v-101l-249 -319h254l-14 -110h-403v102l249 319h-228v109h391z" />
    <glyph glyph-name="braceleft" unicode="{" horiz-adv-x="323" 
d="M293 839v-101q-46 0 -63.5 -13.5t-17.5 -47.5v-199q0 -60 -23.5 -88t-73.5 -41q50 -12 74 -39.5t24 -87.5v-199q0 -34 17.5 -47.5t62.5 -13.5v-101q-122 0 -168 38.5t-46 122.5v189q0 45 -14 62.5t-52 17.5v117q38 0 52 18t14 63v189q0 85 46 123t168 38z" />
    <glyph glyph-name="bar" unicode="|" horiz-adv-x="383" 
d="M257 809v-913h-131v913h131z" />
    <glyph glyph-name="braceright" unicode="}" horiz-adv-x="323" 
d="M31 839q122 0 167.5 -38t45.5 -123v-189q0 -45 14 -63t52 -18v-117q-38 0 -52 -17.5t-14 -62.5v-189q0 -85 -45.5 -123t-167.5 -38v101q45 0 62.5 13.5t17.5 47.5v199q0 60 24 87.5t73 39.5q-50 13 -73.5 41t-23.5 88v199q0 34 -17.5 47.5t-62.5 13.5v101z" />
    <glyph glyph-name="asciitilde" unicode="~" horiz-adv-x="508" 
d="M334 236q-37 0 -68.5 15t-55.5 30.5t-42 15.5q-16 0 -30 -8.5t-21.5 -17.5t-18.5 -26l-77 39q59 120 155 120q36 0 67 -15t55.5 -30.5t43.5 -15.5q15 0 28.5 7.5t21.5 16t19 24.5l76 -38q-57 -117 -153 -117z" />
    <glyph glyph-name="uni00A0" unicode="&#xa0;" horiz-adv-x="244" 
 />
    <glyph glyph-name="exclamdown" unicode="&#xa1;" horiz-adv-x="241" 
d="M121 506q35 0 60 -25.5t25 -60.5t-25 -60t-60 -25q-36 0 -61 25t-25 60t25 60.5t61 25.5zM179 238l18 -446h-152l18 446h116z" />
    <glyph glyph-name="cent" unicode="&#xa2;" horiz-adv-x="478" 
d="M405 135l62 -89q-58 -47 -125 -58v-147h-106v148q-93 17 -145.5 89t-52.5 183t53.5 186.5t145.5 93.5v149h105v-148q69 -11 125 -60l-62 -84q-50 38 -104 38q-113 0 -113 -174q0 -164 112 -164q47 0 105 37z" />
    <glyph glyph-name="sterling" unicode="&#xa3;" horiz-adv-x="535" 
d="M253 232q0 -47 -13 -74.5t-50 -47.5h310l-16 -110h-453v104q53 16 68 41.5t15 80.5v88h-68v76h68v95q0 90 53.5 146t153.5 56q125 0 198 -95l-88 -65q-38 52 -97 52q-81 0 -81 -95v-94h191v-76h-191v-82z" />
    <glyph glyph-name="currency" unicode="&#xa4;" 
d="M499 341q0 -67 -34 -120l75 -74l-66 -67l-77 76q-52 -30 -118 -30q-65 0 -116 31l-78 -77l-65 67l77 76q-34 53 -34 118t33 118l-76 78l66 66l78 -78q51 31 115 31q66 0 119 -31l77 78l65 -66l-75 -76q34 -53 34 -120zM281 225q51 0 77.5 30.5t26.5 86.5q0 55 -26.5 85.5
t-77.5 30.5q-50 0 -76.5 -30.5t-26.5 -85.5q0 -56 26.5 -86.5t76.5 -30.5z" />
    <glyph glyph-name="yen" unicode="&#xa5;" horiz-adv-x="561" 
d="M565 674l-180 -323h101v-78h-134v-76h134v-77h-134v-120h-142v120h-134v77h134v76h-134v78h100l-180 323h152l136 -284l134 284h147z" />
    <glyph glyph-name="brokenbar" unicode="&#xa6;" horiz-adv-x="383" 
d="M257 809v-366h-131v366h131zM257 262v-366h-131v366h131z" />
    <glyph glyph-name="section" unicode="&#xa7;" horiz-adv-x="546" 
d="M411 180q55 -38 55 -105q0 -70 -59 -112.5t-156 -42.5q-110 0 -186 53l47 85q61 -38 133 -38q39 0 62 13t23 36q0 28 -22 43.5t-99 39.5q-78 24 -115 57t-37 92q0 75 79 122q-54 40 -54 107q0 70 57 113t151 43q105 0 187 -55l-48 -82q-64 37 -133 37q-78 0 -78 -50
q0 -27 21.5 -43t95.5 -39q79 -26 116.5 -59.5t37.5 -91.5q0 -73 -78 -123zM265 245q30 -10 69 -26q29 34 29 65q0 28 -20 44.5t-80 37.5q-50 18 -54 19q-26 -30 -26 -64q0 -28 17 -44t65 -32z" />
    <glyph glyph-name="dieresis" unicode="&#xa8;" horiz-adv-x="437" 
d="M104 792q32 0 53.5 -21.5t21.5 -52.5t-21.5 -52.5t-53.5 -21.5q-31 0 -53 21.5t-22 52.5t22 52.5t53 21.5zM330 792q32 0 54 -21.5t22 -52.5t-22 -52.5t-54 -21.5q-31 0 -52.5 21.5t-21.5 52.5t21.5 52.5t52.5 21.5z" />
    <glyph glyph-name="copyright" unicode="&#xa9;" horiz-adv-x="810" 
d="M406 762q140 0 235.5 -93t95.5 -236t-95.5 -236t-235.5 -93t-236.5 93t-96.5 236t96.5 236t236.5 93zM406 689q-108 0 -178 -71.5t-70 -184.5q0 -114 70 -184.5t178 -70.5t177.5 70.5t69.5 184.5q0 113 -70 184.5t-177 71.5zM408 629q73 0 127 -48l-45 -58q-33 25 -72 25
q-36 0 -57.5 -27.5t-21.5 -86.5q0 -114 77 -114q44 0 82 30l41 -61q-56 -51 -130 -51q-80 0 -127 51t-47 145q0 90 48.5 142.5t124.5 52.5z" />
    <glyph glyph-name="ordfeminine" unicode="&#xaa;" horiz-adv-x="500" 
d="M251 527h42v14q0 33 -16 45.5t-55 12.5q-48 0 -111 -21l-30 84q81 30 161 30q92 0 134.5 -35.5t42.5 -107.5v-149q0 -38 29 -48l-26 -84q-76 6 -104 56q-41 -58 -128 -58q-63 0 -101 35t-38 91q0 65 51.5 100t148.5 35zM230 358q40 0 63 31v68h-29q-81 0 -81 -56
q0 -43 47 -43zM57 111h401v-111h-401v111z" />
    <glyph glyph-name="guillemotleft" unicode="&#xab;" horiz-adv-x="615" 
d="M227 551l87 -58l-131 -208l131 -208l-87 -58l-186 220v91zM487 551l87 -58l-131 -208l131 -208l-87 -58l-186 220v91z" />
    <glyph glyph-name="logicalnot" unicode="&#xac;" horiz-adv-x="524" 
d="M472 383v-263h-119v151h-301v112h420z" />
    <glyph glyph-name="uni00AD" unicode="&#xad;" horiz-adv-x="406" 
d="M48 257v112h310v-112h-310z" />
    <glyph glyph-name="registered" unicode="&#xae;" horiz-adv-x="638" 
d="M319 757q116 0 193 -77.5t77 -193.5q0 -115 -77 -191.5t-193 -76.5q-115 0 -192 76.5t-77 191.5q0 116 77 193.5t192 77.5zM319 281q87 0 142 56.5t55 148.5q0 93 -55 150.5t-142 57.5q-86 0 -141.5 -58t-55.5 -150q0 -91 55.5 -148t141.5 -57zM431 547q0 -55 -60 -77
l74 -117h-78l-59 104h-22v-104h-68v281h83q130 0 130 -87zM286 583v-72h29q46 0 46 38q0 34 -47 34h-28z" />
    <glyph glyph-name="macron" unicode="&#xaf;" horiz-adv-x="358" 
d="M328 658h-298v100h298v-100z" />
    <glyph glyph-name="degree" unicode="&#xb0;" horiz-adv-x="521" 
d="M218 372q-69 0 -122 46.5t-53 122.5t52.5 121.5t122.5 45.5t122.5 -46t52.5 -122t-52.5 -122t-122.5 -46zM218 457q33 0 53.5 22.5t20.5 60.5q0 39 -20.5 61.5t-53.5 22.5t-53.5 -22t-20.5 -61t20.5 -61.5t53.5 -22.5z" />
    <glyph glyph-name="plusminus" unicode="&#xb1;" horiz-adv-x="524" 
d="M322 603v-155h150v-111h-150v-154h-120v154h-149v111h149v155h120zM57 0v111h411v-111h-411z" />
    <glyph glyph-name="uni00B2" unicode="&#xb2;" horiz-adv-x="400" 
d="M195 750q73 0 113.5 -35.5t40.5 -88.5q0 -47 -34.5 -92.5t-136.5 -129.5h180l-11 -83h-290v76q112 104 146 144.5t34 75.5q0 24 -14.5 37.5t-39.5 13.5q-43 0 -79 -42l-63 49q58 75 154 75z" />
    <glyph glyph-name="uni00B3" unicode="&#xb3;" horiz-adv-x="400" 
d="M198 750q71 0 110.5 -30.5t39.5 -78.5q0 -75 -92 -98q49 -4 78 -29.5t29 -72.5q0 -56 -45.5 -93.5t-126.5 -37.5q-97 0 -154 65l60 57q39 -40 87 -40q30 0 48 14.5t18 41.5q0 55 -70 55h-36l12 74h25q29 0 45 13t16 36q0 44 -56 44q-47 0 -85 -35l-55 57q64 58 152 58z
" />
    <glyph glyph-name="acute" unicode="&#xb4;" horiz-adv-x="330" 
d="M244 827l56 -109l-230 -92l-40 73z" />
    <glyph glyph-name="uni00B5" unicode="&#xb5;" horiz-adv-x="584" 
d="M531 0l-130 -16q-14 29 -24 89q-47 -82 -115 -82q-59 0 -91 44q34 -66 34 -144v-95l-135 -15v749h142v-366q0 -67 57 -67q58 0 96 72v361h142v-348q0 -104 24 -182z" />
    <glyph glyph-name="paragraph" unicode="&#xb6;" horiz-adv-x="775" 
d="M330 692h323v-896l-125 -17v812h-97v-795l-125 -17v489q-116 4 -175.5 61.5t-59.5 150.5q0 100 68.5 156t190.5 56z" />
    <glyph glyph-name="periodcentered" unicode="&#xb7;" horiz-adv-x="240" 
d="M119 394q36 0 61 -25t25 -60t-25 -60.5t-61 -25.5q-35 0 -60 25.5t-25 60.5t25 60t60 25z" />
    <glyph glyph-name="cedilla" unicode="&#xb8;" horiz-adv-x="310" 
d="M179 16v-66q51 -5 76 -30.5t25 -65.5q0 -50 -39.5 -80.5t-103.5 -30.5q-66 0 -107 29l33 68q31 -17 64 -17q48 0 48 32q0 36 -92 36l16 125h80z" />
    <glyph glyph-name="uni00B9" unicode="&#xb9;" horiz-adv-x="400" 
d="M293 741v-420h-106v317l-94 -56l-47 72l150 87h97z" />
    <glyph glyph-name="ordmasculine" unicode="&#xba;" horiz-adv-x="500" 
d="M251 692q97 0 152.5 -56t55.5 -157q0 -98 -56 -155.5t-153 -57.5q-98 0 -153.5 56t-55.5 158q0 97 56.5 154.5t153.5 57.5zM251 598q-76 0 -76 -118q0 -120 75 -120t75 119q0 63 -18 91t-56 28zM45 0v111h411v-111h-411z" />
    <glyph glyph-name="guillemotright" unicode="&#xbb;" horiz-adv-x="611" 
d="M128 551l186 -221v-91l-186 -220l-87 58l130 208l-130 208zM384 551l186 -221v-91l-186 -220l-87 58l130 208l-130 208z" />
    <glyph glyph-name="onequarter" unicode="&#xbc;" horiz-adv-x="960" 
d="M643 757l84 -42l-410 -799l-84 42zM293 272h-106v317l-94 -56l-47 72l150 87h97v-420zM930 167v-80h-48v-87h-103v87h-190v72l123 270l91 -33l-103 -229h81l17 97h84v-97h48z" />
    <glyph glyph-name="onehalf" unicode="&#xbd;" horiz-adv-x="960" 
d="M643 757l84 -42l-410 -799l-84 42zM293 692v-420h-106v317l-94 -56l-47 72l150 87h97zM755 429q73 0 113.5 -35.5t40.5 -88.5q0 -47 -34.5 -92.5t-136.5 -129.5h180l-11 -83h-290v76q112 104 146 144.5t34 75.5q0 24 -14.5 37.5t-39.5 13.5q-43 0 -79 -42l-63 49
q58 75 154 75z" />
    <glyph glyph-name="threequarters" unicode="&#xbe;" horiz-adv-x="960" 
d="M643 757l84 -42l-410 -799l-84 42zM363 392q0 -56 -45.5 -93.5t-126.5 -37.5q-97 0 -154 65l60 57q39 -40 87 -40q30 0 48 14.5t18 41.5q0 55 -70 55h-36l12 74h25q29 0 45 13t16 36q0 44 -56 44q-47 0 -85 -35l-55 57q64 58 152 58q71 0 110.5 -30.5t39.5 -78.5
q0 -75 -92 -98q49 -4 78 -29.5t29 -72.5zM930 167v-80h-48v-87h-103v87h-190v72l123 270l91 -33l-103 -229h81l17 97h84v-97h48z" />
    <glyph glyph-name="questiondown" unicode="&#xbf;" horiz-adv-x="476" 
d="M262 335q-36 0 -61 25t-25 60t25 60.5t61 25.5t60.5 -25t24.5 -61q0 -35 -24.5 -60t-60.5 -25zM230 -221q-101 0 -156.5 47.5t-55.5 117.5q0 45 18.5 78t45 52t53 36.5t45 41t18.5 54.5v33h131v-38q0 -47 -16.5 -81.5t-40.5 -53.5t-48 -34t-40.5 -33.5t-16.5 -42.5
q0 -31 20.5 -47.5t56.5 -16.5q67 0 122 64l92 -72q-91 -105 -228 -105z" />
    <glyph glyph-name="Agrave" unicode="&#xc0;" horiz-adv-x="586" 
d="M424 825l-36 -73l-234 85l54 108zM439 0l-39 155h-217l-39 -155h-153l213 692h179l212 -692h-156zM211 264h161l-81 319z" />
    <glyph glyph-name="Aacute" unicode="&#xc1;" horiz-adv-x="586" 
d="M429 837l-234 -85l-36 73l216 120zM439 0l-39 155h-217l-39 -155h-153l213 692h179l212 -692h-156zM211 264h161l-81 319z" />
    <glyph glyph-name="Acircumflex" unicode="&#xc2;" horiz-adv-x="586" 
d="M294 839l-131 -83l-53 60l140 124h88l140 -124l-52 -60zM439 0l-39 155h-217l-39 -155h-153l213 692h179l212 -692h-156zM211 264h161l-81 319z" />
    <glyph glyph-name="Atilde" unicode="&#xc3;" horiz-adv-x="586" 
d="M237 812q-28 0 -53 -45l-73 36q20 49 52 80t72 31q33 0 67.5 -23t48.5 -23q27 0 53 44l73 -36q-44 -110 -125 -110q-31 0 -66 23t-49 23zM439 0l-39 155h-217l-39 -155h-153l213 692h179l212 -692h-156zM211 264h161l-81 319z" />
    <glyph glyph-name="Adieresis" unicode="&#xc4;" horiz-adv-x="586" 
d="M179 770q-31 0 -53 21.5t-22 52.5t22 52.5t53 21.5q32 0 53.5 -21.5t21.5 -52.5t-21.5 -52.5t-53.5 -21.5zM405 770q-31 0 -52.5 21.5t-21.5 52.5t21.5 52.5t52.5 21.5q32 0 54 -21.5t22 -52.5t-22 -52.5t-54 -21.5zM439 0l-39 155h-217l-39 -155h-153l213 692h179
l212 -692h-156zM211 264h161l-81 319z" />
    <glyph glyph-name="Aring" unicode="&#xc5;" horiz-adv-x="586" 
d="M294 735q-59 0 -96 36.5t-37 89.5q0 52 37 88.5t96 36.5t96 -36.5t37 -88.5q0 -53 -37 -89.5t-96 -36.5zM294 912q-21 0 -34 -13.5t-13 -37.5q0 -25 12.5 -38.5t34.5 -13.5t34.5 13.5t12.5 38.5q0 24 -13 37.5t-34 13.5zM439 0l-39 155h-217l-39 -155h-153l213 692h179
l212 -692h-156zM211 264h161l-81 319z" />
    <glyph glyph-name="AE" unicode="&#xc6;" horiz-adv-x="838" 
d="M570 108h230v-108h-352l-29 155h-229l-54 -155h-156l272 692h510l-16 -107h-279l39 -182h247v-106h-224zM227 264h171l-60 319z" />
    <glyph glyph-name="Ccedilla" unicode="&#xc7;" horiz-adv-x="571" 
d="M561 71q-72 -74 -179 -85v-36q51 -5 76 -30.5t25 -65.5q0 -50 -39.5 -80.5t-103.5 -30.5q-66 0 -107 29l33 68q31 -17 64 -17q48 0 48 32q0 36 -92 36l12 96q-121 17 -190.5 110t-69.5 250q0 170 86.5 265.5t221.5 95.5q116 0 207 -75l-73 -85q-60 49 -126 49
q-74 0 -117.5 -60.5t-43.5 -189.5q0 -126 43.5 -186.5t118.5 -60.5q66 0 138 56z" />
    <glyph glyph-name="Egrave" unicode="&#xc8;" horiz-adv-x="528" 
d="M196 945l216 -120l-36 -73l-234 85zM486 692l-16 -107h-250v-180h218v-106h-218v-191h268v-108h-415v692h413z" />
    <glyph glyph-name="Eacute" unicode="&#xc9;" horiz-adv-x="528" 
d="M363 945l54 -108l-234 -85l-36 73zM486 692l-16 -107h-250v-180h218v-106h-218v-191h268v-108h-415v692h413z" />
    <glyph glyph-name="Ecircumflex" unicode="&#xca;" horiz-adv-x="528" 
d="M151 756l-53 60l140 124h88l140 -124l-52 -60l-132 83zM486 692l-16 -107h-250v-180h218v-106h-218v-191h268v-108h-415v692h413z" />
    <glyph glyph-name="Edieresis" unicode="&#xcb;" horiz-adv-x="528" 
d="M167 918q32 0 53.5 -21.5t21.5 -52.5t-21.5 -52.5t-53.5 -21.5q-31 0 -53 21.5t-22 52.5t22 52.5t53 21.5zM393 918q32 0 54 -21.5t22 -52.5t-22 -52.5t-54 -21.5q-31 0 -52.5 21.5t-21.5 52.5t21.5 52.5t52.5 21.5zM486 692l-16 -107h-250v-180h218v-106h-218v-191h268
v-108h-415v692h413z" />
    <glyph glyph-name="Igrave" unicode="&#xcc;" horiz-adv-x="294" 
d="M61 945l216 -120l-36 -73l-234 85zM220 692v-692h-147v692h147z" />
    <glyph glyph-name="Iacute" unicode="&#xcd;" horiz-adv-x="294" 
d="M228 945l54 -108l-234 -85l-36 73zM220 692v-692h-147v692h147z" />
    <glyph glyph-name="Icircumflex" unicode="&#xce;" horiz-adv-x="294" 
d="M16 756l-53 60l140 124h88l140 -124l-52 -60l-132 83zM220 692v-692h-147v692h147z" />
    <glyph glyph-name="Idieresis" unicode="&#xcf;" horiz-adv-x="294" 
d="M32 918q32 0 53.5 -21.5t21.5 -52.5t-21.5 -52.5t-53.5 -21.5q-31 0 -53 21.5t-22 52.5t22 52.5t53 21.5zM258 918q32 0 54 -21.5t22 -52.5t-22 -52.5t-54 -21.5q-31 0 -52.5 21.5t-21.5 52.5t21.5 52.5t52.5 21.5zM220 692v-692h-147v692h147z" />
    <glyph glyph-name="Eth" unicode="&#xd0;" horiz-adv-x="663" 
d="M267 692q60 0 108 -8t96 -30.5t80.5 -60t52.5 -99.5t20 -145q0 -100 -28.5 -171.5t-79 -108.5t-107 -53t-125.5 -16h-198v307h-71v92h71v293h181zM293 108q85 0 131.5 52.5t46.5 188.5q0 72 -13.5 120t-40 72t-56.5 33.5t-71 9.5h-57v-185h141v-92h-141v-199h60z" />
    <glyph glyph-name="Ntilde" unicode="&#xd1;" horiz-adv-x="668" 
d="M398 766q-31 0 -66 23t-49 23q-28 0 -53 -45l-73 36q20 49 52 80t72 31q33 0 67.5 -23t48.5 -23q27 0 53 44l73 -36q-44 -110 -125 -110zM595 692v-692h-189l-220 549q20 -155 20 -280v-269h-133v692h185l224 -550q-20 134 -20 246v304h133z" />
    <glyph glyph-name="Ograve" unicode="&#xd2;" horiz-adv-x="691" 
d="M260 945l216 -120l-36 -73l-234 85zM346 708q144 0 225.5 -94.5t81.5 -267.5q0 -170 -82 -266t-225 -96q-144 0 -226 95t-82 267q0 169 82.5 265.5t225.5 96.5zM346 598q-76 0 -114.5 -60t-38.5 -192q0 -252 153 -252q76 0 114 59.5t38 192.5t-38 192.5t-114 59.5z" />
    <glyph glyph-name="Oacute" unicode="&#xd3;" horiz-adv-x="691" 
d="M427 945l54 -108l-234 -85l-36 73zM346 708q144 0 225.5 -94.5t81.5 -267.5q0 -170 -82 -266t-225 -96q-144 0 -226 95t-82 267q0 169 82.5 265.5t225.5 96.5zM346 598q-76 0 -114.5 -60t-38.5 -192q0 -252 153 -252q76 0 114 59.5t38 192.5t-38 192.5t-114 59.5z" />
    <glyph glyph-name="Ocircumflex" unicode="&#xd4;" horiz-adv-x="691" 
d="M215 756l-53 60l140 124h88l140 -124l-52 -60l-132 83zM346 708q144 0 225.5 -94.5t81.5 -267.5q0 -170 -82 -266t-225 -96q-144 0 -226 95t-82 267q0 169 82.5 265.5t225.5 96.5zM346 598q-76 0 -114.5 -60t-38.5 -192q0 -252 153 -252q76 0 114 59.5t38 192.5
t-38 192.5t-114 59.5z" />
    <glyph glyph-name="Otilde" unicode="&#xd5;" horiz-adv-x="691" 
d="M404 766q-31 0 -66 23t-49 23q-28 0 -53 -45l-73 36q20 49 52 80t72 31q33 0 67.5 -23t48.5 -23q27 0 53 44l73 -36q-44 -110 -125 -110zM346 708q144 0 225.5 -94.5t81.5 -267.5q0 -170 -82 -266t-225 -96q-144 0 -226 95t-82 267q0 169 82.5 265.5t225.5 96.5zM346 598
q-76 0 -114.5 -60t-38.5 -192q0 -252 153 -252q76 0 114 59.5t38 192.5t-38 192.5t-114 59.5z" />
    <glyph glyph-name="Odieresis" unicode="&#xd6;" horiz-adv-x="691" 
d="M231 918q32 0 53.5 -21.5t21.5 -52.5t-21.5 -52.5t-53.5 -21.5q-31 0 -53 21.5t-22 52.5t22 52.5t53 21.5zM457 918q32 0 54 -21.5t22 -52.5t-22 -52.5t-54 -21.5q-31 0 -52.5 21.5t-21.5 52.5t21.5 52.5t52.5 21.5zM346 708q144 0 225.5 -94.5t81.5 -267.5
q0 -170 -82 -266t-225 -96q-144 0 -226 95t-82 267q0 169 82.5 265.5t225.5 96.5zM346 598q-76 0 -114.5 -60t-38.5 -192q0 -252 153 -252q76 0 114 59.5t38 192.5t-38 192.5t-114 59.5z" />
    <glyph glyph-name="multiply" unicode="&#xd7;" horiz-adv-x="514" 
d="M375 504l79 -80l-117 -115l117 -120l-79 -80l-116 122l-120 -122l-79 80l116 115l-116 120l79 80l116 -122z" />
    <glyph glyph-name="Oslash" unicode="&#xd8;" horiz-adv-x="691" 
d="M507 667q146 -86 146 -321q0 -170 -82 -266t-225 -96q-31 0 -54 4l-36 -121l-113 30l40 129q-145 87 -145 320q0 169 82.5 265.5t225.5 96.5q30 0 53 -4l37 122l112 -30zM346 598q-76 0 -114.5 -60t-38.5 -192q0 -155 48 -212l139 462q-22 2 -34 2zM346 94q76 0 114 59.5
t38 192.5q0 159 -49 214l-139 -463q18 -3 36 -3z" />
    <glyph glyph-name="Ugrave" unicode="&#xd9;" horiz-adv-x="654" 
d="M241 945l216 -120l-36 -73l-234 85zM590 692v-464q0 -109 -68.5 -176.5t-195.5 -67.5q-128 0 -195.5 66.5t-67.5 177.5v464h147v-457q0 -139 116 -139q117 0 117 139v457h147z" />
    <glyph glyph-name="Uacute" unicode="&#xda;" horiz-adv-x="654" 
d="M408 945l54 -108l-234 -85l-36 73zM590 692v-464q0 -109 -68.5 -176.5t-195.5 -67.5q-128 0 -195.5 66.5t-67.5 177.5v464h147v-457q0 -139 116 -139q117 0 117 139v457h147z" />
    <glyph glyph-name="Ucircumflex" unicode="&#xdb;" horiz-adv-x="654" 
d="M196 756l-53 60l140 124h88l140 -124l-52 -60l-132 83zM590 692v-464q0 -109 -68.5 -176.5t-195.5 -67.5q-128 0 -195.5 66.5t-67.5 177.5v464h147v-457q0 -139 116 -139q117 0 117 139v457h147z" />
    <glyph glyph-name="Udieresis" unicode="&#xdc;" horiz-adv-x="654" 
d="M212 918q32 0 53.5 -21.5t21.5 -52.5t-21.5 -52.5t-53.5 -21.5q-31 0 -53 21.5t-22 52.5t22 52.5t53 21.5zM438 918q32 0 54 -21.5t22 -52.5t-22 -52.5t-54 -21.5q-31 0 -52.5 21.5t-21.5 52.5t21.5 52.5t52.5 21.5zM590 692v-464q0 -109 -68.5 -176.5t-195.5 -67.5
q-128 0 -195.5 66.5t-67.5 177.5v464h147v-457q0 -139 116 -139q117 0 117 139v457h147z" />
    <glyph glyph-name="Yacute" unicode="&#xdd;" horiz-adv-x="583" 
d="M373 945l54 -108l-234 -85l-36 73zM587 692l-222 -431v-261h-147v260l-222 432h161l138 -314l137 314h155z" />
    <glyph glyph-name="Thorn" unicode="&#xde;" horiz-adv-x="595" 
d="M287 581q135 0 209.5 -56.5t74.5 -168.5q0 -120 -74 -179.5t-198 -59.5h-79v-117h-147v692h147v-111h67zM287 225q65 0 98.5 29.5t33.5 100.5q0 120 -134 120h-65v-250h67z" />
    <glyph glyph-name="germandbls" unicode="&#xdf;" horiz-adv-x="603" 
d="M297 757q93 0 147 -43t54 -105q0 -34 -16 -62t-35.5 -43t-35.5 -34.5t-16 -39.5q0 -21 19 -40t46 -37t54 -40.5t46 -60.5t19 -87q0 -83 -56 -132t-140 -49q-62 0 -114 26l42 97q21 -12 55 -12q31 0 49 18.5t18 53.5q0 32 -17 56.5t-41 42t-47.5 35t-40.5 45t-17 63.5
q0 35 14.5 60.5t32 38.5t32 35t14.5 50q0 29 -18.5 45.5t-49.5 16.5q-83 0 -83 -117v-538h-142v535q0 104 59 163t168 59z" />
    <glyph glyph-name="agrave" unicode="&#xe0;" horiz-adv-x="547" 
d="M414 699l-40 -73l-230 92l57 109zM475 147q0 -31 9 -45.5t30 -21.5l-30 -94q-93 8 -122 78q-52 -80 -159 -80q-79 0 -125.5 45.5t-46.5 118.5q0 87 63 133t181 46h61v26q0 49 -22 68t-73 19q-56 0 -140 -28l-32 95q99 39 196 39q210 0 210 -185v-214zM242 86q60 0 94 59
v101h-47q-115 0 -115 -86q0 -35 17.5 -54.5t50.5 -19.5z" />
    <glyph glyph-name="aacute" unicode="&#xe1;" horiz-adv-x="547" 
d="M399 718l-230 -92l-40 73l214 128zM475 147q0 -31 9 -45.5t30 -21.5l-30 -94q-93 8 -122 78q-52 -80 -159 -80q-79 0 -125.5 45.5t-46.5 118.5q0 87 63 133t181 46h61v26q0 49 -22 68t-73 19q-56 0 -140 -28l-32 95q99 39 196 39q210 0 210 -185v-214zM242 86q60 0 94 59
v101h-47q-115 0 -115 -86q0 -35 17.5 -54.5t50.5 -19.5z" />
    <glyph glyph-name="acircumflex" unicode="&#xe2;" horiz-adv-x="547" 
d="M269 713l-132 -89l-52 60l140 131h88l140 -131l-53 -60zM475 147q0 -31 9 -45.5t30 -21.5l-30 -94q-93 8 -122 78q-52 -80 -159 -80q-79 0 -125.5 45.5t-46.5 118.5q0 87 63 133t181 46h61v26q0 49 -22 68t-73 19q-56 0 -140 -28l-32 95q99 39 196 39q210 0 210 -185
v-214zM242 86q60 0 94 59v101h-47q-115 0 -115 -86q0 -35 17.5 -54.5t50.5 -19.5z" />
    <glyph glyph-name="atilde" unicode="&#xe3;" horiz-adv-x="547" 
d="M212 686q-28 0 -53 -45l-73 36q20 49 52 80t72 31q33 0 67.5 -23t48.5 -23q27 0 53 44l73 -36q-44 -110 -125 -110q-31 0 -66 23t-49 23zM475 147q0 -31 9 -45.5t30 -21.5l-30 -94q-93 8 -122 78q-52 -80 -159 -80q-79 0 -125.5 45.5t-46.5 118.5q0 87 63 133t181 46h61
v26q0 49 -22 68t-73 19q-56 0 -140 -28l-32 95q99 39 196 39q210 0 210 -185v-214zM242 86q60 0 94 59v101h-47q-115 0 -115 -86q0 -35 17.5 -54.5t50.5 -19.5z" />
    <glyph glyph-name="adieresis" unicode="&#xe4;" horiz-adv-x="547" 
d="M155 644q-31 0 -53 21.5t-22 52.5t22 52.5t53 21.5q32 0 53.5 -21.5t21.5 -52.5t-21.5 -52.5t-53.5 -21.5zM381 644q-31 0 -52.5 21.5t-21.5 52.5t21.5 52.5t52.5 21.5q32 0 54 -21.5t22 -52.5t-22 -52.5t-54 -21.5zM475 147q0 -31 9 -45.5t30 -21.5l-30 -94
q-93 8 -122 78q-52 -80 -159 -80q-79 0 -125.5 45.5t-46.5 118.5q0 87 63 133t181 46h61v26q0 49 -22 68t-73 19q-56 0 -140 -28l-32 95q99 39 196 39q210 0 210 -185v-214zM242 86q60 0 94 59v101h-47q-115 0 -115 -86q0 -35 17.5 -54.5t50.5 -19.5z" />
    <glyph glyph-name="aring" unicode="&#xe5;" horiz-adv-x="547" 
d="M269 609q-59 0 -96 36.5t-37 89.5q0 52 37 88.5t96 36.5t96 -36.5t37 -88.5q0 -53 -37 -89.5t-96 -36.5zM269 786q-21 0 -34 -13.5t-13 -37.5q0 -25 12.5 -38.5t34.5 -13.5t34.5 13.5t12.5 38.5q0 24 -13 37.5t-34 13.5zM475 147q0 -31 9 -45.5t30 -21.5l-30 -94
q-93 8 -122 78q-52 -80 -159 -80q-79 0 -125.5 45.5t-46.5 118.5q0 87 63 133t181 46h61v26q0 49 -22 68t-73 19q-56 0 -140 -28l-32 95q99 39 196 39q210 0 210 -185v-214zM242 86q60 0 94 59v101h-47q-115 0 -115 -86q0 -35 17.5 -54.5t50.5 -19.5z" />
    <glyph glyph-name="ae" unicode="&#xe6;" horiz-adv-x="854" 
d="M821 277q0 -10 -3 -55h-331q7 -72 39 -102t87 -30q63 0 129 46l59 -80q-89 -72 -201 -72q-136 0 -205 92q-65 -92 -189 -92q-81 0 -128 45.5t-47 118.5q0 87 64.5 133t184.5 46h61v25q0 49 -21.5 68t-72.5 19q-58 0 -140 -28l-33 96q99 39 196 39q111 0 161 -70
q62 70 161 70q105 0 167 -71.5t62 -197.5zM681 311v6q-2 132 -96 132q-88 0 -98 -138h194zM249 86q60 0 106 72q-10 37 -12 82v3h-47q-115 0 -115 -85q0 -34 17.5 -53t50.5 -19z" />
    <glyph glyph-name="ccedilla" unicode="&#xe7;" horiz-adv-x="478" 
d="M467 46q-67 -54 -147 -61v-35q51 -5 76 -30.5t25 -65.5q0 -50 -39.5 -80.5t-103.5 -30.5q-66 0 -107 29l33 68q31 -17 64 -17q48 0 48 32q0 36 -92 36l13 98q-94 17 -146.5 89t-52.5 183q0 127 69 206t184 79q102 0 176 -64l-62 -84q-50 38 -104 38q-113 0 -113 -174
q0 -164 112 -164q47 0 105 37z" />
    <glyph glyph-name="egrave" unicode="&#xe8;" horiz-adv-x="551" 
d="M427 699l-40 -73l-230 92l57 109zM518 277q0 -10 -3 -55h-331q7 -72 39 -102t87 -30q63 0 129 46l59 -80q-89 -72 -201 -72q-125 0 -192 75t-67 203q0 124 64 204t177 80t176 -71t63 -198zM377 311v6q0 132 -95 132q-88 0 -98 -138h193z" />
    <glyph glyph-name="eacute" unicode="&#xe9;" horiz-adv-x="551" 
d="M412 718l-230 -92l-40 73l214 128zM518 277q0 -10 -3 -55h-331q7 -72 39 -102t87 -30q63 0 129 46l59 -80q-89 -72 -201 -72q-125 0 -192 75t-67 203q0 124 64 204t177 80t176 -71t63 -198zM377 311v6q0 132 -95 132q-88 0 -98 -138h193z" />
    <glyph glyph-name="ecircumflex" unicode="&#xea;" horiz-adv-x="551" 
d="M282 713l-132 -89l-52 60l140 131h88l140 -131l-53 -60zM518 277q0 -10 -3 -55h-331q7 -72 39 -102t87 -30q63 0 129 46l59 -80q-89 -72 -201 -72q-125 0 -192 75t-67 203q0 124 64 204t177 80t176 -71t63 -198zM377 311v6q0 132 -95 132q-88 0 -98 -138h193z" />
    <glyph glyph-name="edieresis" unicode="&#xeb;" horiz-adv-x="551" 
d="M168 644q-31 0 -53 21.5t-22 52.5t22 52.5t53 21.5q32 0 53.5 -21.5t21.5 -52.5t-21.5 -52.5t-53.5 -21.5zM394 644q-31 0 -52.5 21.5t-21.5 52.5t21.5 52.5t52.5 21.5q32 0 54 -21.5t22 -52.5t-22 -52.5t-54 -21.5zM518 277q0 -10 -3 -55h-331q7 -72 39 -102t87 -30
q63 0 129 46l59 -80q-89 -72 -201 -72q-125 0 -192 75t-67 203q0 124 64 204t177 80t176 -71t63 -198zM377 311v6q0 132 -95 132q-88 0 -98 -138h193z" />
    <glyph glyph-name="igrave" unicode="&#xec;" horiz-adv-x="282" 
d="M73 827l213 -128l-40 -73l-230 92zM212 530v-530h-142v530h142z" />
    <glyph glyph-name="iacute" unicode="&#xed;" horiz-adv-x="282" 
d="M215 827l56 -109l-230 -92l-40 73zM212 530v-530h-142v530h142z" />
    <glyph glyph-name="icircumflex" unicode="&#xee;" horiz-adv-x="282" 
d="M9 624l-52 60l140 131h88l140 -131l-53 -60l-131 89zM212 530v-530h-142v530h142z" />
    <glyph glyph-name="idieresis" unicode="&#xef;" horiz-adv-x="282" 
d="M27 792q32 0 53.5 -21.5t21.5 -52.5t-21.5 -52.5t-53.5 -21.5q-31 0 -53 21.5t-22 52.5t22 52.5t53 21.5zM253 792q32 0 54 -21.5t22 -52.5t-22 -52.5t-54 -21.5q-31 0 -52.5 21.5t-21.5 52.5t21.5 52.5t52.5 21.5zM212 530v-530h-142v530h142z" />
    <glyph glyph-name="eth" unicode="&#xf0;" horiz-adv-x="577" 
d="M353 668q98 -69 139 -164.5t41 -229.5q0 -127 -67.5 -208.5t-183.5 -81.5q-106 0 -175 67.5t-69 182.5q0 102 57.5 173t148.5 71q79 0 136 -51q-26 98 -106 161l-59 -59l-91 43l61 64q-41 14 -96 25l28 95q83 -15 146 -40l73 77l75 -65zM283 89q106 0 106 169
q0 12 -0.5 35t-0.5 34q-42 50 -108 50q-97 0 -97 -140q0 -74 26.5 -111t73.5 -37z" />
    <glyph glyph-name="ntilde" unicode="&#xf1;" horiz-adv-x="579" 
d="M238 686q-28 0 -53 -45l-73 36q20 49 52 80t72 31q33 0 67.5 -23t48.5 -23q27 0 53 44l73 -36q-44 -110 -125 -110q-31 0 -66 23t-49 23zM366 546q70 0 109 -42.5t39 -117.5v-386h-142v362q0 43 -14.5 60.5t-43.5 17.5q-56 0 -102 -74v-366h-142v530h123l11 -67
q67 83 162 83z" />
    <glyph glyph-name="ograve" unicode="&#xf2;" horiz-adv-x="584" 
d="M224 827l213 -128l-40 -73l-230 92zM293 546q119 0 186 -74.5t67 -206.5q0 -127 -68 -204t-186 -77q-119 0 -186.5 74.5t-67.5 206.5q0 128 68 204.5t187 76.5zM293 440q-107 0 -107 -175t106 -175t106 175t-105 175z" />
    <glyph glyph-name="oacute" unicode="&#xf3;" horiz-adv-x="584" 
d="M366 827l56 -109l-230 -92l-40 73zM293 546q119 0 186 -74.5t67 -206.5q0 -127 -68 -204t-186 -77q-119 0 -186.5 74.5t-67.5 206.5q0 128 68 204.5t187 76.5zM293 440q-107 0 -107 -175t106 -175t106 175t-105 175z" />
    <glyph glyph-name="ocircumflex" unicode="&#xf4;" horiz-adv-x="584" 
d="M160 624l-52 60l140 131h88l140 -131l-53 -60l-131 89zM293 546q119 0 186 -74.5t67 -206.5q0 -127 -68 -204t-186 -77q-119 0 -186.5 74.5t-67.5 206.5q0 128 68 204.5t187 76.5zM293 440q-107 0 -107 -175t106 -175t106 175t-105 175z" />
    <glyph glyph-name="otilde" unicode="&#xf5;" horiz-adv-x="584" 
d="M350 640q-31 0 -66 23t-49 23q-28 0 -53 -45l-73 36q20 49 52 80t72 31q33 0 67.5 -23t48.5 -23q27 0 53 44l73 -36q-44 -110 -125 -110zM293 546q119 0 186 -74.5t67 -206.5q0 -127 -68 -204t-186 -77q-119 0 -186.5 74.5t-67.5 206.5q0 128 68 204.5t187 76.5zM293 440
q-107 0 -107 -175t106 -175t106 175t-105 175z" />
    <glyph glyph-name="odieresis" unicode="&#xf6;" horiz-adv-x="584" 
d="M178 792q32 0 53.5 -21.5t21.5 -52.5t-21.5 -52.5t-53.5 -21.5q-31 0 -53 21.5t-22 52.5t22 52.5t53 21.5zM404 792q32 0 54 -21.5t22 -52.5t-22 -52.5t-54 -21.5q-31 0 -52.5 21.5t-21.5 52.5t21.5 52.5t52.5 21.5zM293 546q119 0 186 -74.5t67 -206.5q0 -127 -68 -204
t-186 -77q-119 0 -186.5 74.5t-67.5 206.5q0 128 68 204.5t187 76.5zM293 440q-107 0 -107 -175t106 -175t106 175t-105 175z" />
    <glyph glyph-name="divide" unicode="&#xf7;" horiz-adv-x="514" 
d="M257 656q36 0 61 -25t25 -60t-25 -60.5t-61 -25.5q-35 0 -60 25.5t-25 60.5t25 60t60 25zM52 277v111h411v-111h-411zM257 180q36 0 61 -25t25 -60t-25 -60.5t-61 -25.5q-35 0 -60 25.5t-25 60.5t25 60t60 25z" />
    <glyph glyph-name="oslash" unicode="&#xf8;" horiz-adv-x="584" 
d="M433 509q113 -68 113 -244q0 -127 -68 -204t-186 -77q-12 0 -38 2l-37 -120l-106 31l40 124q-113 69 -113 244q0 128 68 204.5t187 76.5q13 0 37 -2l39 120l106 -31zM293 440q-116 0 -116 -175q0 -105 30 -144l106 318q-6 1 -20 1zM292 90q115 0 115 175q0 105 -30 143
l-105 -317q6 -1 20 -1z" />
    <glyph glyph-name="ugrave" unicode="&#xf9;" horiz-adv-x="574" 
d="M217 827l213 -128l-40 -73l-230 92zM504 530v-530h-123l-7 71q-56 -87 -161 -87q-72 0 -110 43.5t-38 121.5v381h142v-363q0 -42 14 -59.5t44 -17.5q57 0 97 69v371h142z" />
    <glyph glyph-name="uacute" unicode="&#xfa;" horiz-adv-x="574" 
d="M359 827l56 -109l-230 -92l-40 73zM504 530v-530h-123l-7 71q-56 -87 -161 -87q-72 0 -110 43.5t-38 121.5v381h142v-363q0 -42 14 -59.5t44 -17.5q57 0 97 69v371h142z" />
    <glyph glyph-name="ucircumflex" unicode="&#xfb;" horiz-adv-x="574" 
d="M153 624l-52 60l140 131h88l140 -131l-53 -60l-131 89zM504 530v-530h-123l-7 71q-56 -87 -161 -87q-72 0 -110 43.5t-38 121.5v381h142v-363q0 -42 14 -59.5t44 -17.5q57 0 97 69v371h142z" />
    <glyph glyph-name="udieresis" unicode="&#xfc;" horiz-adv-x="574" 
d="M171 792q32 0 53.5 -21.5t21.5 -52.5t-21.5 -52.5t-53.5 -21.5q-31 0 -53 21.5t-22 52.5t22 52.5t53 21.5zM397 792q32 0 54 -21.5t22 -52.5t-22 -52.5t-54 -21.5q-31 0 -52.5 21.5t-21.5 52.5t21.5 52.5t52.5 21.5zM504 530v-530h-123l-7 71q-56 -87 -161 -87
q-72 0 -110 43.5t-38 121.5v381h142v-363q0 -42 14 -59.5t44 -17.5q57 0 97 69v371h142z" />
    <glyph glyph-name="yacute" unicode="&#xfd;" horiz-adv-x="512" 
d="M330 827l56 -109l-230 -92l-40 73zM514 530l-171 -531q-32 -101 -100.5 -156t-185.5 -63l-15 102q76 10 111.5 36t58.5 82h-49l-165 530h151l106 -438l112 438h147z" />
    <glyph glyph-name="thorn" unicode="&#xfe;" horiz-adv-x="596" 
d="M354 546q199 0 199 -280q0 -125 -56 -203.5t-154 -78.5q-81 0 -131 57v-243l-142 -18v961l142 16v-280q57 69 142 69zM301 90q104 0 104 175q0 96 -23.5 136t-71.5 40q-57 0 -98 -68v-231q34 -52 89 -52z" />
    <glyph glyph-name="ydieresis" unicode="&#xff;" horiz-adv-x="512" 
d="M142 792q32 0 53.5 -21.5t21.5 -52.5t-21.5 -52.5t-53.5 -21.5q-31 0 -53 21.5t-22 52.5t22 52.5t53 21.5zM368 792q32 0 54 -21.5t22 -52.5t-22 -52.5t-54 -21.5q-31 0 -52.5 21.5t-21.5 52.5t21.5 52.5t52.5 21.5zM514 530l-171 -531q-32 -101 -100.5 -156t-185.5 -63
l-15 102q76 10 111.5 36t58.5 82h-49l-165 530h151l106 -438l112 438h147z" />
    <glyph glyph-name="Amacron" unicode="&#x100;" horiz-adv-x="586" 
d="M443 884v-100h-298v100h298zM439 0l-39 155h-217l-39 -155h-153l213 692h179l212 -692h-156zM211 264h161l-81 319z" />
    <glyph glyph-name="amacron" unicode="&#x101;" horiz-adv-x="547" 
d="M418 758v-100h-298v100h298zM475 147q0 -31 9 -45.5t30 -21.5l-30 -94q-93 8 -122 78q-52 -80 -159 -80q-79 0 -125.5 45.5t-46.5 118.5q0 87 63 133t181 46h61v26q0 49 -22 68t-73 19q-56 0 -140 -28l-32 95q99 39 196 39q210 0 210 -185v-214zM242 86q60 0 94 59v101
h-47q-115 0 -115 -86q0 -35 17.5 -54.5t50.5 -19.5z" />
    <glyph glyph-name="Abreve" unicode="&#x102;" horiz-adv-x="586" 
d="M293 752q-71 0 -116 44t-51 109l81 15q21 -67 86 -67t87 67l81 -15q-6 -65 -51.5 -109t-116.5 -44zM439 0l-39 155h-217l-39 -155h-153l213 692h179l212 -692h-156zM211 264h161l-81 319z" />
    <glyph glyph-name="abreve" unicode="&#x103;" horiz-adv-x="547" 
d="M268 635q-72 0 -116.5 45.5t-50.5 117.5l81 15q19 -78 86 -78q66 0 87 78l81 -15q-6 -72 -51 -117.5t-117 -45.5zM475 147q0 -31 9 -45.5t30 -21.5l-30 -94q-93 8 -122 78q-52 -80 -159 -80q-79 0 -125.5 45.5t-46.5 118.5q0 87 63 133t181 46h61v26q0 49 -22 68t-73 19
q-56 0 -140 -28l-32 95q99 39 196 39q210 0 210 -185v-214zM242 86q60 0 94 59v101h-47q-115 0 -115 -86q0 -35 17.5 -54.5t50.5 -19.5z" />
    <glyph glyph-name="Aogonek" unicode="&#x104;" horiz-adv-x="586" 
d="M522 0q-120 -46 -120 -105q0 -46 54 -46q29 0 61 7l-10 -91q-37 -7 -68 -7q-63 0 -102.5 30.5t-39.5 81.5q0 100 136 154l-33 131h-217l-39 -155h-153l213 692h179l212 -692h-73zM211 264h161l-81 319z" />
    <glyph glyph-name="aogonek" unicode="&#x105;" horiz-adv-x="547" 
d="M484 -14q-120 -46 -120 -105q0 -46 54 -46q29 0 61 7l-10 -91q-37 -7 -68 -7q-63 0 -102.5 30.5t-39.5 81.5q0 102 142 156q-24 18 -39 52q-52 -80 -159 -80q-79 0 -125.5 45.5t-46.5 118.5q0 87 63 133t181 46h61v26q0 49 -22 68t-73 19q-56 0 -140 -28l-32 95
q99 39 196 39q210 0 210 -185v-214q0 -31 9 -45.5t30 -21.5zM242 86q60 0 94 59v101h-47q-115 0 -115 -86q0 -35 17.5 -54.5t50.5 -19.5z" />
    <glyph glyph-name="Cacute" unicode="&#x106;" horiz-adv-x="571" 
d="M433 945l54 -108l-234 -85l-36 73zM346 708q116 0 207 -75l-73 -85q-60 49 -126 49q-74 0 -117.5 -60.5t-43.5 -189.5q0 -126 43.5 -186.5t118.5 -60.5q66 0 138 56l68 -85q-85 -87 -212 -87q-142 0 -226.5 95t-84.5 268q0 170 86.5 265.5t221.5 95.5z" />
    <glyph glyph-name="cacute" unicode="&#x107;" horiz-adv-x="478" 
d="M364 827l56 -109l-230 -92l-40 73zM291 546q102 0 176 -64l-62 -84q-50 38 -104 38q-113 0 -113 -174q0 -164 112 -164q47 0 105 37l62 -89q-76 -62 -174 -62q-118 0 -186.5 75t-68.5 202t69 206t184 79z" />
    <glyph glyph-name="Ccircumflex" unicode="&#x108;" horiz-adv-x="571" 
d="M221 756l-53 60l140 124h88l140 -124l-52 -60l-132 83zM346 708q116 0 207 -75l-73 -85q-60 49 -126 49q-74 0 -117.5 -60.5t-43.5 -189.5q0 -126 43.5 -186.5t118.5 -60.5q66 0 138 56l68 -85q-85 -87 -212 -87q-142 0 -226.5 95t-84.5 268q0 170 86.5 265.5t221.5 95.5
z" />
    <glyph glyph-name="ccircumflex" unicode="&#x109;" horiz-adv-x="478" 
d="M158 624l-52 60l140 131h88l140 -131l-53 -60l-131 89zM291 546q102 0 176 -64l-62 -84q-50 38 -104 38q-113 0 -113 -174q0 -164 112 -164q47 0 105 37l62 -89q-76 -62 -174 -62q-118 0 -186.5 75t-68.5 202t69 206t184 79z" />
    <glyph glyph-name="Cdotaccent" unicode="&#x10a;" horiz-adv-x="571" 
d="M351 929q38 0 62.5 -23.5t24.5 -59.5t-24.5 -59.5t-62.5 -23.5t-62 23.5t-24 59.5t24 59.5t62 23.5zM346 708q116 0 207 -75l-73 -85q-60 49 -126 49q-74 0 -117.5 -60.5t-43.5 -189.5q0 -126 43.5 -186.5t118.5 -60.5q66 0 138 56l68 -85q-85 -87 -212 -87
q-142 0 -226.5 95t-84.5 268q0 170 86.5 265.5t221.5 95.5z" />
    <glyph glyph-name="cdotaccent" unicode="&#x10b;" horiz-adv-x="478" 
d="M289 803q38 0 62.5 -23.5t24.5 -59.5t-24.5 -59.5t-62.5 -23.5t-62 23.5t-24 59.5t24 59.5t62 23.5zM291 546q102 0 176 -64l-62 -84q-50 38 -104 38q-113 0 -113 -174q0 -164 112 -164q47 0 105 37l62 -89q-76 -62 -174 -62q-118 0 -186.5 75t-68.5 202t69 206t184 79z
" />
    <glyph glyph-name="Ccaron" unicode="&#x10c;" horiz-adv-x="571" 
d="M484 935l52 -60l-140 -124h-88l-140 124l53 60l131 -83zM346 708q116 0 207 -75l-73 -85q-60 49 -126 49q-74 0 -117.5 -60.5t-43.5 -189.5q0 -126 43.5 -186.5t118.5 -60.5q66 0 138 56l68 -85q-85 -87 -212 -87q-142 0 -226.5 95t-84.5 268q0 170 86.5 265.5
t221.5 95.5z" />
    <glyph glyph-name="ccaron" unicode="&#x10d;" horiz-adv-x="478" 
d="M422 806l52 -60l-140 -131h-88l-140 131l53 60l131 -89zM291 546q102 0 176 -64l-62 -84q-50 38 -104 38q-113 0 -113 -174q0 -164 112 -164q47 0 105 37l62 -89q-76 -62 -174 -62q-118 0 -186.5 75t-68.5 202t69 206t184 79z" />
    <glyph glyph-name="Dcaron" unicode="&#x10e;" horiz-adv-x="650" 
d="M429 935l52 -60l-140 -124h-88l-140 124l53 60l131 -83zM254 692q60 0 108 -8t96 -30.5t80.5 -60t52.5 -99.5t20 -145q0 -100 -28.5 -171.5t-79 -108.5t-107 -53t-125.5 -16h-198v692h181zM277 584h-57v-476h60q85 0 131.5 52.5t46.5 188.5q0 72 -13.5 120t-40 72
t-56.5 33.5t-71 9.5z" />
    <glyph glyph-name="dcaron" unicode="&#x10f;" horiz-adv-x="665" 
d="M387 493v264l142 -16v-741h-125l-8 65q-56 -81 -152 -81q-98 0 -149.5 75.5t-51.5 205.5q0 124 59 202.5t156 78.5q74 0 129 -53zM591 756l110 -15l-54 -208l-78 12zM286 90q58 0 101 64v237q-42 50 -92 50q-104 0 -104 -176q0 -175 95 -175z" />
    <glyph glyph-name="Dcroat" unicode="&#x110;" horiz-adv-x="663" 
d="M267 692q60 0 108 -8t96 -30.5t80.5 -60t52.5 -99.5t20 -145q0 -100 -28.5 -171.5t-79 -108.5t-107 -53t-125.5 -16h-198v307h-71v92h71v293h181zM293 108q85 0 131.5 52.5t46.5 188.5q0 72 -13.5 120t-40 72t-56.5 33.5t-71 9.5h-57v-185h141v-92h-141v-199h60z" />
    <glyph glyph-name="dcroat" unicode="&#x111;" horiz-adv-x="607" 
d="M529 685h67v-87h-67v-598h-125l-8 65q-56 -81 -152 -81q-98 0 -149.5 75.5t-51.5 205.5q0 124 59 202.5t156 78.5q74 0 129 -53v105h-142v87h142v72l142 -16v-56zM286 90q58 0 101 64v237q-42 50 -92 50q-104 0 -104 -176q0 -175 95 -175z" />
    <glyph glyph-name="Emacron" unicode="&#x112;" horiz-adv-x="528" 
d="M431 784h-298v100h298v-100zM486 692l-16 -107h-250v-180h218v-106h-218v-191h268v-108h-415v692h413z" />
    <glyph glyph-name="emacron" unicode="&#x113;" horiz-adv-x="551" 
d="M431 758v-100h-298v100h298zM518 277q0 -10 -3 -55h-331q7 -72 39 -102t87 -30q63 0 129 46l59 -80q-89 -72 -201 -72q-125 0 -192 75t-67 203q0 124 64 204t177 80t176 -71t63 -198zM377 311v6q0 132 -95 132q-88 0 -98 -138h193z" />
    <glyph glyph-name="Ebreve" unicode="&#x114;" horiz-adv-x="528" 
d="M281 752q-71 0 -116 44t-51 109l81 15q21 -67 86 -67t87 67l81 -15q-6 -65 -51.5 -109t-116.5 -44zM486 692l-16 -107h-250v-180h218v-106h-218v-191h268v-108h-415v692h413z" />
    <glyph glyph-name="ebreve" unicode="&#x115;" horiz-adv-x="551" 
d="M281 635q-72 0 -116.5 45.5t-50.5 117.5l81 15q19 -78 86 -78q66 0 87 78l81 -15q-6 -72 -51 -117.5t-117 -45.5zM518 277q0 -10 -3 -55h-331q7 -72 39 -102t87 -30q63 0 129 46l59 -80q-89 -72 -201 -72q-125 0 -192 75t-67 203q0 124 64 204t177 80t176 -71t63 -198z
M377 311v6q0 132 -95 132q-88 0 -98 -138h193z" />
    <glyph glyph-name="Edotaccent" unicode="&#x116;" horiz-adv-x="528" 
d="M281 929q38 0 62.5 -23.5t24.5 -59.5t-24.5 -59.5t-62.5 -23.5t-62 23.5t-24 59.5t24 59.5t62 23.5zM486 692l-16 -107h-250v-180h218v-106h-218v-191h268v-108h-415v692h413z" />
    <glyph glyph-name="edotaccent" unicode="&#x117;" horiz-adv-x="551" 
d="M281 637q-38 0 -62 23.5t-24 59.5t24 59.5t62 23.5t62.5 -23.5t24.5 -59.5t-24.5 -59.5t-62.5 -23.5zM518 277q0 -10 -3 -55h-331q7 -72 39 -102t87 -30q63 0 129 46l59 -80q-89 -72 -201 -72q-125 0 -192 75t-67 203q0 124 64 204t177 80t176 -71t63 -198zM377 311v6
q0 132 -95 132q-88 0 -98 -138h193z" />
    <glyph glyph-name="Eogonek" unicode="&#x118;" horiz-adv-x="528" 
d="M220 108h268v-108h-40q-120 -46 -120 -105q0 -46 54 -46q29 0 61 7l-10 -91q-37 -7 -68 -7q-63 0 -102.5 30.5t-39.5 81.5q0 80 86 130h-236v692h413l-16 -107h-250v-180h218v-106h-218v-191z" />
    <glyph glyph-name="eogonek" unicode="&#x119;" horiz-adv-x="551" 
d="M518 277q0 -10 -3 -55h-331q7 -72 39 -102t87 -30q63 0 129 46l59 -80q-51 -41 -108 -58q-94 -43 -94 -95q0 -46 53 -46q29 0 61 7l-10 -91q-37 -7 -68 -7q-63 0 -102.5 30.5t-39.5 81.5q0 67 72 108q-108 10 -166 84t-58 192q0 124 64 204t177 80t176 -71t63 -198z
M377 311v6q0 132 -95 132q-88 0 -98 -138h193z" />
    <glyph glyph-name="Ecaron" unicode="&#x11a;" horiz-adv-x="528" 
d="M414 935l52 -60l-140 -124h-88l-140 124l53 60l131 -83zM486 692l-16 -107h-250v-180h218v-106h-218v-191h268v-108h-415v692h413z" />
    <glyph glyph-name="ecaron" unicode="&#x11b;" horiz-adv-x="551" 
d="M326 615h-88l-140 131l53 60l131 -89l132 89l52 -60zM518 277q0 -10 -3 -55h-331q7 -72 39 -102t87 -30q63 0 129 46l59 -80q-89 -72 -201 -72q-125 0 -192 75t-67 203q0 124 64 204t177 80t176 -71t63 -198zM377 311v6q0 132 -95 132q-88 0 -98 -138h193z" />
    <glyph glyph-name="Gcircumflex" unicode="&#x11c;" horiz-adv-x="641" 
d="M222 756l-53 60l140 124h88l140 -124l-52 -60l-132 83zM362 708q128 0 226 -83l-77 -80q-71 54 -143 54q-79 0 -127.5 -62.5t-48.5 -190.5q0 -135 37.5 -193.5t116.5 -58.5q57 0 103 25v169h-97l-15 107h255v-341q-114 -70 -243 -70q-153 0 -232 92t-79 271
q0 170 92 265.5t232 95.5z" />
    <glyph glyph-name="gcircumflex" unicode="&#x11d;" horiz-adv-x="544" 
d="M140 624l-52 60l140 131h88l140 -131l-53 -60l-131 89zM509 610l35 -109q-52 -20 -153 -20q50 -22 74 -54.5t24 -81.5q0 -79 -59 -128.5t-159 -49.5q-35 0 -62 7q-20 -13 -20 -35q0 -35 61 -35h81q89 0 143 -42.5t54 -109.5q0 -81 -69.5 -126.5t-200.5 -45.5
q-138 0 -192.5 42t-54.5 127h127q0 -39 25 -55.5t98 -16.5q69 0 96.5 17t27.5 48q0 58 -83 58h-78q-79 0 -118 29.5t-39 74.5q0 60 62 99q-94 51 -94 151q0 87 62.5 139.5t163.5 52.5q82 -2 135 14t113 50zM264 451q-40 0 -63.5 -25.5t-23.5 -69.5q0 -45 23.5 -71t64.5 -26
q87 0 87 99q0 93 -88 93z" />
    <glyph glyph-name="Gbreve" unicode="&#x11e;" horiz-adv-x="641" 
d="M352 752q-71 0 -116 44t-51 109l81 15q21 -67 86 -67t87 67l81 -15q-6 -65 -51.5 -109t-116.5 -44zM362 708q128 0 226 -83l-77 -80q-71 54 -143 54q-79 0 -127.5 -62.5t-48.5 -190.5q0 -135 37.5 -193.5t116.5 -58.5q57 0 103 25v169h-97l-15 107h255v-341
q-114 -70 -243 -70q-153 0 -232 92t-79 271q0 170 92 265.5t232 95.5z" />
    <glyph glyph-name="gbreve" unicode="&#x11f;" horiz-adv-x="544" 
d="M271 635q-72 0 -116.5 45.5t-50.5 117.5l81 15q19 -78 86 -78q66 0 87 78l81 -15q-6 -72 -51 -117.5t-117 -45.5zM509 610l35 -109q-52 -20 -153 -20q50 -22 74 -54.5t24 -81.5q0 -79 -59 -128.5t-159 -49.5q-35 0 -62 7q-20 -13 -20 -35q0 -35 61 -35h81q89 0 143 -42.5
t54 -109.5q0 -81 -69.5 -126.5t-200.5 -45.5q-138 0 -192.5 42t-54.5 127h127q0 -39 25 -55.5t98 -16.5q69 0 96.5 17t27.5 48q0 58 -83 58h-78q-79 0 -118 29.5t-39 74.5q0 60 62 99q-94 51 -94 151q0 87 62.5 139.5t163.5 52.5q82 -2 135 14t113 50zM264 451
q-40 0 -63.5 -25.5t-23.5 -69.5q0 -45 23.5 -71t64.5 -26q87 0 87 99q0 93 -88 93z" />
    <glyph glyph-name="Gdotaccent" unicode="&#x120;" horiz-adv-x="641" 
d="M352 929q38 0 62.5 -23.5t24.5 -59.5t-24.5 -59.5t-62.5 -23.5t-62 23.5t-24 59.5t24 59.5t62 23.5zM362 708q128 0 226 -83l-77 -80q-71 54 -143 54q-79 0 -127.5 -62.5t-48.5 -190.5q0 -135 37.5 -193.5t116.5 -58.5q57 0 103 25v169h-97l-15 107h255v-341
q-114 -70 -243 -70q-153 0 -232 92t-79 271q0 170 92 265.5t232 95.5z" />
    <glyph glyph-name="gdotaccent" unicode="&#x121;" horiz-adv-x="544" 
d="M271 803q38 0 62.5 -23.5t24.5 -59.5t-24.5 -59.5t-62.5 -23.5t-62 23.5t-24 59.5t24 59.5t62 23.5zM509 610l35 -109q-52 -20 -153 -20q50 -22 74 -54.5t24 -81.5q0 -79 -59 -128.5t-159 -49.5q-35 0 -62 7q-20 -13 -20 -35q0 -35 61 -35h81q89 0 143 -42.5t54 -109.5
q0 -81 -69.5 -126.5t-200.5 -45.5q-138 0 -192.5 42t-54.5 127h127q0 -39 25 -55.5t98 -16.5q69 0 96.5 17t27.5 48q0 58 -83 58h-78q-79 0 -118 29.5t-39 74.5q0 60 62 99q-94 51 -94 151q0 87 62.5 139.5t163.5 52.5q82 -2 135 14t113 50zM264 451q-40 0 -63.5 -25.5
t-23.5 -69.5q0 -45 23.5 -71t64.5 -26q87 0 87 99q0 93 -88 93z" />
    <glyph glyph-name="Gcommaaccent" unicode="&#x122;" horiz-adv-x="641" 
d="M362 708q128 0 226 -83l-77 -80q-71 54 -143 54q-79 0 -127.5 -62.5t-48.5 -190.5q0 -135 37.5 -193.5t116.5 -58.5q57 0 103 25v169h-97l-15 107h255v-341q-114 -70 -243 -70q-153 0 -232 92t-79 271q0 170 92 265.5t232 95.5zM348 -70q31 0 52 -20.5t21 -51.5
q0 -28 -26 -83l-46 -93h-72l27 115q-30 25 -30 61q0 30 21 51t53 21z" />
    <glyph glyph-name="gcommaaccent" unicode="&#x123;" horiz-adv-x="544" 
d="M269 578q-31 0 -52 20.5t-21 51.5q0 28 26 83l46 93h72l-27 -115q30 -25 30 -61q0 -30 -21 -51t-53 -21zM509 610l35 -109q-52 -20 -153 -20q50 -22 74 -54.5t24 -81.5q0 -79 -59 -128.5t-159 -49.5q-35 0 -62 7q-20 -13 -20 -35q0 -35 61 -35h81q89 0 143 -42.5
t54 -109.5q0 -81 -69.5 -126.5t-200.5 -45.5q-138 0 -192.5 42t-54.5 127h127q0 -39 25 -55.5t98 -16.5q69 0 96.5 17t27.5 48q0 58 -83 58h-78q-79 0 -118 29.5t-39 74.5q0 60 62 99q-94 51 -94 151q0 87 62.5 139.5t163.5 52.5q82 -2 135 14t113 50zM264 451
q-40 0 -63.5 -25.5t-23.5 -69.5q0 -45 23.5 -71t64.5 -26q87 0 87 99q0 93 -88 93z" />
    <glyph glyph-name="Hcircumflex" unicode="&#x124;" horiz-adv-x="669" 
d="M204 756l-53 60l140 124h88l140 -124l-52 -60l-132 83zM449 0v303h-229v-303h-147v692h147v-273h229v273h147v-692h-147z" />
    <glyph glyph-name="hcircumflex" unicode="&#x125;" horiz-adv-x="579" 
d="M289 888l-131 -83l-53 60l140 124h88l140 -124l-52 -60zM366 546q69 0 108.5 -42.5t39.5 -117.5v-386h-142v362q0 43 -15 60.5t-43 17.5q-56 0 -102 -73v-367h-142v741l142 15v-286q65 76 154 76z" />
    <glyph glyph-name="Hbar" unicode="&#x126;" horiz-adv-x="680" 
d="M661 588v-86h-60v-502h-147v303h-229v-303h-147v502h-60v86h60v104h147v-104h229v104h147v-104h60zM454 419v83h-229v-83h229z" />
    <glyph glyph-name="hbar" unicode="&#x127;" horiz-adv-x="587" 
d="M374 546q69 0 108.5 -42.5t39.5 -117.5v-386h-142v362q0 43 -15 60.5t-43 17.5q-56 0 -102 -73v-367h-142v598h-66v87h66v56l142 15v-71h136v-87h-136v-128q65 76 154 76z" />
    <glyph glyph-name="Itilde" unicode="&#x128;" horiz-adv-x="294" 
d="M205 766q-31 0 -66 23t-49 23q-28 0 -53 -45l-73 36q20 49 52 80t72 31q33 0 67.5 -23t48.5 -23q27 0 53 44l73 -36q-44 -110 -125 -110zM220 692v-692h-147v692h147z" />
    <glyph glyph-name="itilde" unicode="&#x129;" horiz-adv-x="282" 
d="M199 640q-31 0 -66 23t-49 23q-28 0 -53 -45l-73 36q20 49 52 80t72 31q33 0 67.5 -23t48.5 -23q27 0 53 44l73 -36q-44 -110 -125 -110zM212 530v-530h-142v530h142z" />
    <glyph glyph-name="Imacron" unicode="&#x12a;" horiz-adv-x="294" 
d="M296 784h-298v100h298v-100zM220 692v-692h-147v692h147z" />
    <glyph glyph-name="imacron" unicode="&#x12b;" horiz-adv-x="282" 
d="M290 658h-298v100h298v-100zM212 530v-530h-142v530h142z" />
    <glyph glyph-name="Ibreve" unicode="&#x12c;" horiz-adv-x="294" 
d="M146 752q-71 0 -116 44t-51 109l81 15q21 -67 86 -67t87 67l81 -15q-6 -65 -51.5 -109t-116.5 -44zM220 692v-692h-147v692h147z" />
    <glyph glyph-name="ibreve" unicode="&#x12d;" horiz-adv-x="282" 
d="M140 635q-72 0 -116.5 45.5t-50.5 117.5l81 15q19 -78 86 -78q66 0 87 78l81 -15q-6 -72 -51 -117.5t-117 -45.5zM212 530v-530h-142v530h142z" />
    <glyph glyph-name="Iogonek" unicode="&#x12e;" horiz-adv-x="294" 
d="M73 692h147v-692h-21q-120 -46 -120 -105q0 -46 54 -46q29 0 61 7l-10 -91q-37 -7 -68 -7q-63 0 -102.5 30.5t-39.5 81.5q0 85 99 137v685z" />
    <glyph glyph-name="iogonek" unicode="&#x12f;" horiz-adv-x="282" 
d="M140 637q-38 0 -62 23.5t-24 59.5t24 59.5t62 23.5t62.5 -23.5t24.5 -59.5t-24.5 -59.5t-62.5 -23.5zM70 9v521h142v-530h-19q-120 -46 -120 -105q0 -46 54 -46q29 0 61 7l-10 -91q-37 -7 -68 -7q-63 0 -102.5 30.5t-39.5 81.5q0 87 102 139z" />
    <glyph glyph-name="Idotaccent" unicode="&#x130;" horiz-adv-x="294" 
d="M146 929q38 0 62.5 -23.5t24.5 -59.5t-24.5 -59.5t-62.5 -23.5t-62 23.5t-24 59.5t24 59.5t62 23.5zM220 692v-692h-147v692h147z" />
    <glyph glyph-name="dotlessi" unicode="&#x131;" horiz-adv-x="282" 
d="M212 530v-530h-142v530h142z" />
    <glyph glyph-name="IJ" unicode="&#x132;" horiz-adv-x="608" 
d="M220 692v-692h-147v692h147zM539 692v-589q0 -115 -55.5 -173.5t-157.5 -91.5l-39 105q64 25 84.5 61t20.5 104v584h147z" />
    <glyph glyph-name="ij" unicode="&#x133;" horiz-adv-x="563" 
d="M140 803q38 0 62.5 -23.5t24.5 -59.5t-24.5 -59.5t-62.5 -23.5t-62 23.5t-24 59.5t24 59.5t62 23.5zM422 803q38 0 62.5 -23.5t24.5 -59.5t-24.5 -59.5t-62.5 -23.5t-62 23.5t-24 59.5t24 59.5t62 23.5zM212 530v-530h-142v530h142zM493 530v-477q0 -61 -14 -106
t-42.5 -76t-62 -51t-83.5 -39l-47 103q58 27 82.5 59t24.5 101v486h142z" />
    <glyph glyph-name="Jcircumflex" unicode="&#x134;" horiz-adv-x="314" 
d="M40 756l-53 60l140 124h88l140 -124l-52 -60l-132 83zM245 692v-589q0 -115 -55.5 -173.5t-157.5 -91.5l-39 105q64 25 84.5 61t20.5 104v584h147z" />
    <glyph glyph-name="jcircumflex" unicode="&#x135;" horiz-adv-x="281" 
d="M8 624l-52 60l140 131h88l140 -131l-53 -60l-131 89zM211 530v-477q0 -61 -14 -106t-42.5 -76t-62 -51t-83.5 -39l-47 103q58 27 82.5 59t24.5 101v486h142z" />
    <glyph glyph-name="Kcommaaccent" unicode="&#x136;" horiz-adv-x="622" 
d="M220 692v-692h-147v692h147zM613 692l-231 -312l249 -380h-172l-233 369l230 323h157zM324 -70q31 0 52 -20.5t21 -51.5q0 -28 -26 -83l-46 -93h-72l27 115q-30 25 -30 61q0 30 21 51t53 21z" />
    <glyph glyph-name="kcommaaccent" unicode="&#x137;" horiz-adv-x="542" 
d="M212 757v-757h-142v741zM534 530l-169 -233l184 -297h-161l-171 290l170 240h147zM273 -70q31 0 52 -20.5t21 -51.5q0 -28 -26 -83l-46 -93h-72l27 115q-30 25 -30 61q0 30 21 51t53 21z" />
    <glyph glyph-name="kgreenlandic" unicode="&#x138;" horiz-adv-x="541" 
d="M212 530v-530h-142v530h142zM532 530l-169 -243l185 -287h-162l-171 280l170 250h147z" />
    <glyph glyph-name="Lacute" unicode="&#x139;" horiz-adv-x="509" 
d="M228 945l54 -108l-234 -85l-36 73zM220 692v-574h274l-16 -118h-405v692h147z" />
    <glyph glyph-name="lacute" unicode="&#x13a;" horiz-adv-x="296" 
d="M217 994l54 -108l-234 -85l-36 73zM202 -16q-65 0 -101 37.5t-36 106.5v613l142 16v-625q0 -35 29 -35q16 0 28 6l29 -101q-41 -18 -91 -18z" />
    <glyph glyph-name="Lcommaaccent" unicode="&#x13b;" horiz-adv-x="509" 
d="M220 692v-574h274l-16 -118h-405v692h147zM278 -70q31 0 52 -20.5t21 -51.5q0 -28 -26 -83l-46 -93h-72l27 115q-30 25 -30 61q0 30 21 51t53 21z" />
    <glyph glyph-name="lcommaaccent" unicode="&#x13c;" horiz-adv-x="296" 
d="M202 -16q-65 0 -101 37.5t-36 106.5v613l142 16v-625q0 -35 29 -35q16 0 28 6l29 -101q-41 -18 -91 -18zM184 -70q31 0 52 -20.5t21 -51.5q0 -28 -26 -83l-46 -93h-72l27 115q-30 25 -30 61q0 30 21 51t53 21z" />
    <glyph glyph-name="Lcaron" unicode="&#x13d;" horiz-adv-x="509" 
d="M344 484l54 208l-110 15l-22 -211zM220 692v-574h274l-16 -118h-405v692h147z" />
    <glyph glyph-name="lcaron" unicode="&#x13e;" horiz-adv-x="351" 
d="M202 -16q-65 0 -101 37.5t-36 106.5v613l142 16v-625q0 -35 29 -35q16 0 28 6l29 -101q-41 -18 -91 -18zM326 533l54 208l-110 15l-22 -211z" />
    <glyph glyph-name="Ldot" unicode="&#x13f;" horiz-adv-x="509" 
d="M220 692v-574h274l-16 -118h-405v692h147zM397 480q38 0 62.5 -23.5t24.5 -59.5t-24.5 -59.5t-62.5 -23.5t-62 23.5t-24 59.5t24 59.5t62 23.5z" />
    <glyph glyph-name="ldot" unicode="&#x140;" horiz-adv-x="415" 
d="M202 -16q-65 0 -101 37.5t-36 106.5v613l142 16v-625q0 -35 29 -35q16 0 28 6l29 -101q-41 -18 -91 -18zM341 460q38 0 62.5 -23.5t24.5 -59.5t-24.5 -59.5t-62.5 -23.5t-62 23.5t-24 59.5t24 59.5t62 23.5z" />
    <glyph glyph-name="Lslash" unicode="&#x141;" horiz-adv-x="543" 
d="M254 118h274l-16 -118h-405v232l-46 -28l-49 80l95 59v349h147v-258l136 84l50 -80l-186 -115v-205z" />
    <glyph glyph-name="lslash" unicode="&#x142;" horiz-adv-x="347" 
d="M259 97q16 0 28 6l29 -101q-41 -18 -91 -18q-65 0 -101 37.5t-36 106.5v148l-44 -27l-48 79l92 58v355l142 16v-285l73 44l47 -80l-120 -73v-231q0 -35 29 -35z" />
    <glyph glyph-name="Nacute" unicode="&#x143;" horiz-adv-x="668" 
d="M421 945l54 -108l-234 -85l-36 73zM595 692v-692h-189l-220 549q20 -155 20 -280v-269h-133v692h185l224 -550q-20 134 -20 246v304h133z" />
    <glyph glyph-name="nacute" unicode="&#x144;" horiz-adv-x="579" 
d="M425 718l-230 -92l-40 73l214 128zM366 546q70 0 109 -42.5t39 -117.5v-386h-142v362q0 43 -14.5 60.5t-43.5 17.5q-56 0 -102 -74v-366h-142v530h123l11 -67q67 83 162 83z" />
    <glyph glyph-name="Ncommaaccent" unicode="&#x145;" horiz-adv-x="668" 
d="M595 692v-692h-189l-220 549q20 -155 20 -280v-269h-133v692h185l224 -550q-20 134 -20 246v304h133zM337 -70q31 0 52 -20.5t21 -51.5q0 -28 -26 -83l-46 -93h-72l27 115q-30 25 -30 61q0 30 21 51t53 21z" />
    <glyph glyph-name="ncommaaccent" unicode="&#x146;" horiz-adv-x="579" 
d="M366 546q70 0 109 -42.5t39 -117.5v-386h-142v362q0 43 -14.5 60.5t-43.5 17.5q-56 0 -102 -74v-366h-142v530h123l11 -67q67 83 162 83zM292 -70q31 0 52 -20.5t21 -51.5q0 -28 -26 -83l-46 -93h-72l27 115q-30 25 -30 61q0 30 21 51t53 21z" />
    <glyph glyph-name="Ncaron" unicode="&#x147;" horiz-adv-x="668" 
d="M472 935l52 -60l-140 -124h-88l-140 124l53 60l131 -83zM595 692v-692h-189l-220 549q20 -155 20 -280v-269h-133v692h185l224 -550q-20 134 -20 246v304h133z" />
    <glyph glyph-name="ncaron" unicode="&#x148;" horiz-adv-x="579" 
d="M339 615h-88l-140 131l53 60l131 -89l132 89l52 -60zM366 546q70 0 109 -42.5t39 -117.5v-386h-142v362q0 43 -14.5 60.5t-43.5 17.5q-56 0 -102 -74v-366h-142v530h123l11 -67q67 83 162 83z" />
    <glyph glyph-name="napostrophe" unicode="&#x149;" horiz-adv-x="700" 
d="M103 758q28 0 47 -18.5t19 -46.5q0 -26 -25 -75l-41 -84h-65l25 105q-27 22 -27 54q0 27 19.5 46t47.5 19zM487 546q70 0 109 -42.5t39 -117.5v-386h-142v362q0 43 -14.5 60.5t-43.5 17.5q-56 0 -102 -74v-366h-142v530h123l11 -67q67 83 162 83z" />
    <glyph glyph-name="Eng" unicode="&#x14a;" horiz-adv-x="668" 
d="M462 692h133v-730q0 -89 -50.5 -135.5t-138.5 -46.5q-80 0 -135 42l50 88q37 -21 70 -21q56 0 56 64v47h-41l-220 549q20 -155 20 -280v-269h-133v692h185l224 -550q-20 134 -20 246v304z" />
    <glyph glyph-name="eng" unicode="&#x14b;" horiz-adv-x="579" 
d="M366 546q70 0 109 -42.5t39 -117.5v-424q0 -88 -50 -135t-135 -47q-81 0 -136 42l49 84q40 -20 72 -20q58 0 58 64v412q0 43 -14.5 60.5t-43.5 17.5q-56 0 -102 -74v-366h-142v530h123l11 -67q67 83 162 83z" />
    <glyph glyph-name="Omacron" unicode="&#x14c;" horiz-adv-x="691" 
d="M495 784h-298v100h298v-100zM346 708q144 0 225.5 -94.5t81.5 -267.5q0 -170 -82 -266t-225 -96q-144 0 -226 95t-82 267q0 169 82.5 265.5t225.5 96.5zM346 598q-76 0 -114.5 -60t-38.5 -192q0 -252 153 -252q76 0 114 59.5t38 192.5t-38 192.5t-114 59.5z" />
    <glyph glyph-name="omacron" unicode="&#x14d;" horiz-adv-x="584" 
d="M441 658h-298v100h298v-100zM293 546q119 0 186 -74.5t67 -206.5q0 -127 -68 -204t-186 -77q-119 0 -186.5 74.5t-67.5 206.5q0 128 68 204.5t187 76.5zM293 440q-107 0 -107 -175t106 -175t106 175t-105 175z" />
    <glyph glyph-name="Obreve" unicode="&#x14e;" horiz-adv-x="691" 
d="M345 752q-71 0 -116 44t-51 109l81 15q21 -67 86 -67t87 67l81 -15q-6 -65 -51.5 -109t-116.5 -44zM346 708q144 0 225.5 -94.5t81.5 -267.5q0 -170 -82 -266t-225 -96q-144 0 -226 95t-82 267q0 169 82.5 265.5t225.5 96.5zM346 598q-76 0 -114.5 -60t-38.5 -192
q0 -252 153 -252q76 0 114 59.5t38 192.5t-38 192.5t-114 59.5z" />
    <glyph glyph-name="obreve" unicode="&#x14f;" horiz-adv-x="584" 
d="M291 635q-72 0 -116.5 45.5t-50.5 117.5l81 15q19 -78 86 -78q66 0 87 78l81 -15q-6 -72 -51 -117.5t-117 -45.5zM293 546q119 0 186 -74.5t67 -206.5q0 -127 -68 -204t-186 -77q-119 0 -186.5 74.5t-67.5 206.5q0 128 68 204.5t187 76.5zM293 440q-107 0 -107 -175
t106 -175t106 175t-105 175z" />
    <glyph glyph-name="Ohungarumlaut" unicode="&#x150;" horiz-adv-x="691" 
d="M303 979l101 -48l-109 -173l-77 32zM473 979l100 -50l-118 -176l-76 35zM346 708q144 0 225.5 -94.5t81.5 -267.5q0 -170 -82 -266t-225 -96q-144 0 -226 95t-82 267q0 169 82.5 265.5t225.5 96.5zM346 598q-76 0 -114.5 -60t-38.5 -192q0 -252 153 -252q76 0 114 59.5
t38 192.5t-38 192.5t-114 59.5z" />
    <glyph glyph-name="ohungarumlaut" unicode="&#x151;" horiz-adv-x="584" 
d="M247 853l101 -48l-109 -173l-77 32zM417 853l100 -50l-118 -176l-76 35zM293 546q119 0 186 -74.5t67 -206.5q0 -127 -68 -204t-186 -77q-119 0 -186.5 74.5t-67.5 206.5q0 128 68 204.5t187 76.5zM293 440q-107 0 -107 -175t106 -175t106 175t-105 175z" />
    <glyph glyph-name="OE" unicode="&#x152;" horiz-adv-x="903" 
d="M863 108v-108h-443q-39 -16 -90 -16q-133 0 -212.5 95.5t-79.5 266.5q0 168 80 265t212 97q53 0 94 -16h437l-16 -107h-286q59 -72 71 -180h184v-106h-183q-13 -117 -75 -191h307zM193 346q0 -252 143 -252q142 0 142 252t-142 252q-143 0 -143 -252z" />
    <glyph glyph-name="oe" unicode="&#x153;" horiz-adv-x="909" 
d="M876 277q0 -33 -3 -55h-330q7 -73 38.5 -102.5t86.5 -29.5q64 0 130 46l59 -80q-91 -72 -201 -72q-120 0 -186 87q-65 -87 -178 -87q-119 0 -186.5 74.5t-67.5 206.5q0 127 68 204t186 77q112 0 179 -84q65 84 170 84q110 0 172.5 -71t62.5 -198zM736 311v6
q0 132 -92 132q-46 0 -71 -32.5t-30 -105.5h193zM292 90q105 0 105 176q0 174 -105 174q-106 0 -106 -175t106 -175z" />
    <glyph glyph-name="Racute" unicode="&#x154;" horiz-adv-x="614" 
d="M435 837l-234 -85l-36 73l216 120zM443 0l-148 271h-75v-271h-147v692h216q279 0 279 -207q0 -68 -33.5 -112t-103.5 -75l179 -298h-167zM220 587v-212h77q119 0 119 110q0 53 -31.5 77.5t-98.5 24.5h-66z" />
    <glyph glyph-name="racute" unicode="&#x155;" horiz-adv-x="397" 
d="M365 718l-230 -92l-40 73l214 128zM344 545q24 0 53 -8l-24 -137q-28 7 -47 7q-47 0 -73 -33t-41 -100v-274h-142v530h123l13 -103q19 56 55.5 87t82.5 31z" />
    <glyph glyph-name="Rcommaaccent" unicode="&#x156;" horiz-adv-x="614" 
d="M431 298l179 -298h-167l-148 271h-75v-271h-147v692h216q279 0 279 -207q0 -68 -33.5 -112t-103.5 -75zM220 587v-212h77q119 0 119 110q0 53 -31.5 77.5t-98.5 24.5h-66zM312 -70q31 0 52 -20.5t21 -51.5q0 -28 -26 -83l-46 -93h-72l27 115q-30 25 -30 61q0 30 21 51
t53 21z" />
    <glyph glyph-name="rcommaaccent" unicode="&#x157;" horiz-adv-x="397" 
d="M344 545q24 0 53 -8l-24 -137q-28 7 -47 7q-47 0 -73 -33t-41 -100v-274h-142v530h123l13 -103q19 56 55.5 87t82.5 31zM143 -70q31 0 52 -20.5t21 -51.5q0 -28 -26 -83l-46 -93h-72l27 115q-30 25 -30 61q0 30 21 51t53 21z" />
    <glyph glyph-name="Rcaron" unicode="&#x158;" horiz-adv-x="614" 
d="M344 751h-88l-140 124l53 60l131 -83l132 83l52 -60zM443 0l-148 271h-75v-271h-147v692h216q279 0 279 -207q0 -68 -33.5 -112t-103.5 -75l179 -298h-167zM220 587v-212h77q119 0 119 110q0 53 -31.5 77.5t-98.5 24.5h-66z" />
    <glyph glyph-name="rcaron" unicode="&#x159;" horiz-adv-x="397" 
d="M279 615h-88l-140 131l53 60l131 -89l132 89l52 -60zM206 427q19 56 55.5 87t82.5 31q24 0 53 -8l-24 -137q-28 7 -47 7q-47 0 -73 -33t-41 -100v-274h-142v530h123z" />
    <glyph glyph-name="Sacute" unicode="&#x15a;" horiz-adv-x="565" 
d="M372 945l54 -108l-234 -85l-36 73zM284 708q140 0 233 -87l-70 -81q-71 58 -153 58q-46 0 -73.5 -19.5t-27.5 -55.5t27.5 -56.5t111.5 -46.5q103 -33 154 -81.5t51 -138.5q0 -97 -72 -156.5t-196 -59.5q-157 0 -256 97l75 83q82 -69 177 -69q54 0 86.5 25t32.5 70
q0 42 -27 64.5t-105 46.5q-113 35 -161.5 84t-48.5 128q0 88 68 141.5t174 53.5z" />
    <glyph glyph-name="sacute" unicode="&#x15b;" horiz-adv-x="479" 
d="M322 827l56 -109l-230 -92l-40 73zM246 546q112 0 192 -64l-54 -81q-67 42 -132 42q-35 0 -54 -13t-19 -35q0 -24 21.5 -38t89.5 -34q84 -23 125 -61.5t41 -105.5q0 -80 -65.5 -126t-163.5 -46q-132 0 -216 77l70 78q67 -52 142 -52q40 0 63.5 15.5t23.5 42.5
q0 30 -22 45t-95 35q-157 44 -157 163q0 69 57.5 113.5t152.5 44.5z" />
    <glyph glyph-name="Scircumflex" unicode="&#x15c;" horiz-adv-x="565" 
d="M160 756l-53 60l140 124h88l140 -124l-52 -60l-132 83zM284 708q140 0 233 -87l-70 -81q-71 58 -153 58q-46 0 -73.5 -19.5t-27.5 -55.5t27.5 -56.5t111.5 -46.5q103 -33 154 -81.5t51 -138.5q0 -97 -72 -156.5t-196 -59.5q-157 0 -256 97l75 83q82 -69 177 -69
q54 0 86.5 25t32.5 70q0 42 -27 64.5t-105 46.5q-113 35 -161.5 84t-48.5 128q0 88 68 141.5t174 53.5z" />
    <glyph glyph-name="scircumflex" unicode="&#x15d;" horiz-adv-x="479" 
d="M116 624l-52 60l140 131h88l140 -131l-53 -60l-131 89zM246 546q112 0 192 -64l-54 -81q-67 42 -132 42q-35 0 -54 -13t-19 -35q0 -24 21.5 -38t89.5 -34q84 -23 125 -61.5t41 -105.5q0 -80 -65.5 -126t-163.5 -46q-132 0 -216 77l70 78q67 -52 142 -52q40 0 63.5 15.5
t23.5 42.5q0 30 -22 45t-95 35q-157 44 -157 163q0 69 57.5 113.5t152.5 44.5z" />
    <glyph glyph-name="Scedilla" unicode="&#x15e;" horiz-adv-x="565" 
d="M537 200q0 -86 -58.5 -144t-160.5 -69v-37q51 -5 76 -30.5t25 -65.5q0 -50 -39.5 -80.5t-103.5 -30.5q-66 0 -107 29l33 68q31 -17 64 -17q48 0 48 32q0 36 -92 36l12 94q-134 11 -221 96l75 83q82 -69 177 -69q54 0 86.5 25t32.5 70q0 42 -27 64.5t-105 46.5
q-113 35 -161.5 84t-48.5 128q0 88 68 141.5t174 53.5q140 0 233 -87l-70 -81q-71 58 -153 58q-46 0 -73.5 -19.5t-27.5 -55.5t27.5 -56.5t111.5 -46.5q103 -33 154 -81.5t51 -138.5z" />
    <glyph glyph-name="scedilla" unicode="&#x15f;" horiz-adv-x="479" 
d="M456 156q0 -68 -49 -112t-128 -56v-38q51 -5 76 -30.5t25 -65.5q0 -50 -39.5 -80.5t-103.5 -30.5q-66 0 -107 29l33 68q31 -17 64 -17q48 0 48 32q0 36 -92 36l12 94q-114 10 -184 76l70 78q67 -52 142 -52q40 0 63.5 15.5t23.5 42.5q0 30 -22 45t-95 35
q-157 44 -157 163q0 69 57.5 113.5t152.5 44.5q112 0 192 -64l-54 -81q-67 42 -132 42q-35 0 -54 -13t-19 -35q0 -24 21.5 -38t89.5 -34q84 -23 125 -61.5t41 -105.5z" />
    <glyph glyph-name="Scaron" unicode="&#x160;" horiz-adv-x="565" 
d="M423 935l52 -60l-140 -124h-88l-140 124l53 60l131 -83zM284 708q140 0 233 -87l-70 -81q-71 58 -153 58q-46 0 -73.5 -19.5t-27.5 -55.5t27.5 -56.5t111.5 -46.5q103 -33 154 -81.5t51 -138.5q0 -97 -72 -156.5t-196 -59.5q-157 0 -256 97l75 83q82 -69 177 -69
q54 0 86.5 25t32.5 70q0 42 -27 64.5t-105 46.5q-113 35 -161.5 84t-48.5 128q0 88 68 141.5t174 53.5z" />
    <glyph glyph-name="scaron" unicode="&#x161;" horiz-adv-x="479" 
d="M380 806l52 -60l-140 -131h-88l-140 131l53 60l131 -89zM246 546q112 0 192 -64l-54 -81q-67 42 -132 42q-35 0 -54 -13t-19 -35q0 -24 21.5 -38t89.5 -34q84 -23 125 -61.5t41 -105.5q0 -80 -65.5 -126t-163.5 -46q-132 0 -216 77l70 78q67 -52 142 -52q40 0 63.5 15.5
t23.5 42.5q0 30 -22 45t-95 35q-157 44 -157 163q0 69 57.5 113.5t152.5 44.5z" />
    <glyph glyph-name="uni0162" unicode="&#x162;" horiz-adv-x="534" 
d="M341 -50q52 -5 77.5 -30.5t25.5 -65.5q0 -50 -40 -80.5t-105 -30.5q-63 0 -105 29l33 68q31 -17 61 -17q51 0 51 33q0 35 -92 35l14 109h-67v577h-184v115h522l-16 -115h-175v-627z" />
    <glyph glyph-name="uni0163" unicode="&#x163;" horiz-adv-x="380" 
d="M273 -50q51 -5 76 -30.5t25 -65.5q0 -50 -39.5 -80.5t-103.5 -30.5q-66 0 -107 29l33 68q31 -17 64 -17q48 0 48 32q0 36 -92 36l13 101q-107 30 -107 174v264h-79v100h79v116l142 17v-133h122l-14 -100h-108v-261q0 -38 13 -55t40 -17t60 18l49 -90q-49 -33 -114 -40
v-35z" />
    <glyph glyph-name="Tcaron" unicode="&#x164;" horiz-adv-x="534" 
d="M399 935l52 -60l-140 -124h-88l-140 124l53 60l131 -83zM532 692l-16 -115h-175v-577h-147v577h-184v115h522z" />
    <glyph glyph-name="tcaron" unicode="&#x165;" horiz-adv-x="380" 
d="M381 772l-54 -208l-78 12l22 211zM338 115l49 -90q-59 -41 -138 -41q-166 2 -166 182v264h-79v100h79v116l142 17v-133h122l-14 -100h-108v-261q0 -38 13 -55t40 -17t60 18z" />
    <glyph glyph-name="Tbar" unicode="&#x166;" horiz-adv-x="534" 
d="M516 576h-175v-187h117v-87h-117v-303h-147v303h-117v87h117v187h-184v115h522z" />
    <glyph glyph-name="tbar" unicode="&#x167;" horiz-adv-x="380" 
d="M338 115l49 -90q-59 -41 -138 -41q-166 2 -166 182v98h-70v96h70v70h-79v100h79v116l142 17v-133h122l-14 -100h-108v-70h105v-96h-105v-95q0 -38 13 -55t40 -17t60 18z" />
    <glyph glyph-name="Utilde" unicode="&#x168;" horiz-adv-x="654" 
d="M385 766q-31 0 -66 23t-49 23q-28 0 -53 -45l-73 36q20 49 52 80t72 31q33 0 67.5 -23t48.5 -23q27 0 53 44l73 -36q-44 -110 -125 -110zM590 692v-464q0 -109 -68.5 -176.5t-195.5 -67.5q-128 0 -195.5 66.5t-67.5 177.5v464h147v-457q0 -139 116 -139q117 0 117 139
v457h147z" />
    <glyph glyph-name="utilde" unicode="&#x169;" horiz-adv-x="574" 
d="M343 640q-31 0 -66 23t-49 23q-28 0 -53 -45l-73 36q20 49 52 80t72 31q33 0 67.5 -23t48.5 -23q27 0 53 44l73 -36q-44 -110 -125 -110zM504 530v-530h-123l-7 71q-56 -87 -161 -87q-72 0 -110 43.5t-38 121.5v381h142v-363q0 -42 14 -59.5t44 -17.5q57 0 97 69v371h142
z" />
    <glyph glyph-name="Umacron" unicode="&#x16a;" horiz-adv-x="654" 
d="M476 784h-298v100h298v-100zM590 692v-464q0 -109 -68.5 -176.5t-195.5 -67.5q-128 0 -195.5 66.5t-67.5 177.5v464h147v-457q0 -139 116 -139q117 0 117 139v457h147z" />
    <glyph glyph-name="umacron" unicode="&#x16b;" horiz-adv-x="574" 
d="M434 658h-298v100h298v-100zM504 530v-530h-123l-7 71q-56 -87 -161 -87q-72 0 -110 43.5t-38 121.5v381h142v-363q0 -42 14 -59.5t44 -17.5q57 0 97 69v371h142z" />
    <glyph glyph-name="Ubreve" unicode="&#x16c;" horiz-adv-x="654" 
d="M326 752q-71 0 -116 44t-51 109l81 15q21 -67 86 -67t87 67l81 -15q-6 -65 -51.5 -109t-116.5 -44zM590 692v-464q0 -109 -68.5 -176.5t-195.5 -67.5q-128 0 -195.5 66.5t-67.5 177.5v464h147v-457q0 -139 116 -139q117 0 117 139v457h147z" />
    <glyph glyph-name="ubreve" unicode="&#x16d;" horiz-adv-x="574" 
d="M284 635q-72 0 -116.5 45.5t-50.5 117.5l81 15q19 -78 86 -78q66 0 87 78l81 -15q-6 -72 -51 -117.5t-117 -45.5zM504 530v-530h-123l-7 71q-56 -87 -161 -87q-72 0 -110 43.5t-38 121.5v381h142v-363q0 -42 14 -59.5t44 -17.5q57 0 97 69v371h142z" />
    <glyph glyph-name="Uring" unicode="&#x16e;" horiz-adv-x="654" 
d="M327 986q59 0 96 -36.5t37 -88.5q0 -53 -37 -89.5t-96 -36.5t-96 36.5t-37 89.5q0 52 37 88.5t96 36.5zM327 912q-21 0 -34 -13.5t-13 -37.5q0 -25 12.5 -38.5t34.5 -13.5t34.5 13.5t12.5 38.5q0 24 -13 37.5t-34 13.5zM590 692v-464q0 -109 -68.5 -176.5t-195.5 -67.5
q-128 0 -195.5 66.5t-67.5 177.5v464h147v-457q0 -139 116 -139q117 0 117 139v457h147z" />
    <glyph glyph-name="uring" unicode="&#x16f;" horiz-adv-x="574" 
d="M285 860q59 0 96 -36.5t37 -88.5q0 -53 -37 -89.5t-96 -36.5t-96 36.5t-37 89.5q0 52 37 88.5t96 36.5zM285 786q-21 0 -34 -13.5t-13 -37.5q0 -25 12.5 -38.5t34.5 -13.5t34.5 13.5t12.5 38.5q0 24 -13 37.5t-34 13.5zM504 530v-530h-123l-7 71q-56 -87 -161 -87
q-72 0 -110 43.5t-38 121.5v381h142v-363q0 -42 14 -59.5t44 -17.5q57 0 97 69v371h142z" />
    <glyph glyph-name="Uhungarumlaut" unicode="&#x170;" horiz-adv-x="654" 
d="M284 979l101 -48l-109 -173l-77 32zM454 979l100 -50l-118 -176l-76 35zM590 692v-464q0 -109 -68.5 -176.5t-195.5 -67.5q-128 0 -195.5 66.5t-67.5 177.5v464h147v-457q0 -139 116 -139q117 0 117 139v457h147z" />
    <glyph glyph-name="uhungarumlaut" unicode="&#x171;" horiz-adv-x="574" 
d="M240 853l101 -48l-109 -173l-77 32zM410 853l100 -50l-118 -176l-76 35zM504 530v-530h-123l-7 71q-56 -87 -161 -87q-72 0 -110 43.5t-38 121.5v381h142v-363q0 -42 14 -59.5t44 -17.5q57 0 97 69v371h142z" />
    <glyph glyph-name="Uogonek" unicode="&#x172;" horiz-adv-x="654" 
d="M443 692h147v-464q0 -83 -41 -144t-119 -85q-116 -46 -116 -104q0 -46 53 -46q29 0 61 7l-10 -91q-37 -7 -68 -7q-63 0 -102.5 30.5t-39.5 81.5q0 74 87 115q-113 8 -172.5 73.5t-59.5 169.5v464h147v-457q0 -139 116 -139q117 0 117 139v457z" />
    <glyph glyph-name="uogonek" unicode="&#x173;" horiz-adv-x="574" 
d="M504 0q-120 -46 -120 -105q0 -46 54 -46q29 0 61 7l-10 -91q-37 -7 -68 -7q-63 0 -102.5 30.5t-39.5 81.5q0 86 101 138l-6 63q-56 -87 -161 -87q-72 0 -110 43.5t-38 121.5v381h142v-363q0 -42 14 -59.5t44 -17.5q57 0 97 69v371h142v-530z" />
    <glyph glyph-name="Wcircumflex" unicode="&#x174;" horiz-adv-x="842" 
d="M291 756l-53 60l140 124h88l140 -124l-52 -60l-132 83zM828 692l-121 -692h-191l-96 541l-101 -541h-186l-120 692h147l79 -578l105 578h155l101 -578l89 578h139z" />
    <glyph glyph-name="wcircumflex" unicode="&#x175;" horiz-adv-x="741" 
d="M239 624l-52 60l140 131h88l140 -131l-53 -60l-131 89zM733 530l-113 -530h-173l-76 403l-76 -403h-171l-116 530h143l65 -425l88 425h142l79 -425l72 425h136z" />
    <glyph glyph-name="Ycircumflex" unicode="&#x176;" horiz-adv-x="583" 
d="M161 756l-53 60l140 124h88l140 -124l-52 -60l-132 83zM587 692l-222 -431v-261h-147v260l-222 432h161l138 -314l137 314h155z" />
    <glyph glyph-name="ycircumflex" unicode="&#x177;" horiz-adv-x="512" 
d="M124 624l-52 60l140 131h88l140 -131l-53 -60l-131 89zM514 530l-171 -531q-32 -101 -100.5 -156t-185.5 -63l-15 102q76 10 111.5 36t58.5 82h-49l-165 530h151l106 -438l112 438h147z" />
    <glyph glyph-name="Ydieresis" unicode="&#x178;" horiz-adv-x="583" 
d="M177 918q32 0 53.5 -21.5t21.5 -52.5t-21.5 -52.5t-53.5 -21.5q-31 0 -53 21.5t-22 52.5t22 52.5t53 21.5zM403 918q32 0 54 -21.5t22 -52.5t-22 -52.5t-54 -21.5q-31 0 -52.5 21.5t-21.5 52.5t21.5 52.5t52.5 21.5zM587 692l-222 -431v-261h-147v260l-222 432h161
l138 -314l137 314h155z" />
    <glyph glyph-name="Zacute" unicode="&#x179;" horiz-adv-x="539" 
d="M356 945l54 -108l-234 -85l-36 73zM503 692v-113l-310 -460h315l-16 -119h-471v111l316 465h-284v116h450z" />
    <glyph glyph-name="zacute" unicode="&#x17a;" horiz-adv-x="454" 
d="M303 827l56 -109l-230 -92l-40 73zM428 530v-101l-249 -319h254l-14 -110h-403v102l249 319h-228v109h391z" />
    <glyph glyph-name="Zdotaccent" unicode="&#x17b;" horiz-adv-x="539" 
d="M274 929q38 0 62.5 -23.5t24.5 -59.5t-24.5 -59.5t-62.5 -23.5t-62 23.5t-24 59.5t24 59.5t62 23.5zM503 692v-113l-310 -460h315l-16 -119h-471v111l316 465h-284v116h450z" />
    <glyph glyph-name="zdotaccent" unicode="&#x17c;" horiz-adv-x="454" 
d="M228 803q38 0 62.5 -23.5t24.5 -59.5t-24.5 -59.5t-62.5 -23.5t-62 23.5t-24 59.5t24 59.5t62 23.5zM428 530v-101l-249 -319h254l-14 -110h-403v102l249 319h-228v109h391z" />
    <glyph glyph-name="Zcaron" unicode="&#x17d;" horiz-adv-x="539" 
d="M407 935l52 -60l-140 -124h-88l-140 124l53 60l131 -83zM503 692v-113l-310 -460h315l-16 -119h-471v111l316 465h-284v116h450z" />
    <glyph glyph-name="zcaron" unicode="&#x17e;" horiz-adv-x="454" 
d="M361 806l52 -60l-140 -131h-88l-140 131l53 60l131 -89zM428 530v-101l-249 -319h254l-14 -110h-403v102l249 319h-228v109h391z" />
    <glyph glyph-name="longs" unicode="&#x17f;" horiz-adv-x="351" 
d="M282 757q74 0 140 -32l-39 -94q-43 20 -86 20q-36 0 -51.5 -17t-15.5 -55v-579h-142v430h-84v100h84v53q0 77 50.5 125.5t143.5 48.5z" />
    <glyph glyph-name="uni0180" unicode="&#x180;" horiz-adv-x="604" 
d="M365 546q93 0 144.5 -74t51.5 -207q0 -125 -56.5 -203t-153.5 -78q-87 0 -139 68l-8 -52h-126v598h-66v87h66v56l142 16v-72h136v-87h-136v-125q54 73 145 73zM311 89q102 0 102 176q0 97 -24.5 136.5t-70.5 39.5q-57 0 -98 -68v-227q35 -57 91 -57z" />
    <glyph glyph-name="uni0181" unicode="&#x181;" horiz-adv-x="742" 
d="M554 366q157 -30 157 -165q0 -109 -78 -155t-217 -46h-216v585h-28q-48 0 -48 -44q0 -24 16 -67l-91 -41q-44 64 -44 117q0 66 47 104t128 38h209q292 0 292 -177q0 -61 -36.5 -98.5t-90.5 -50.5zM403 586h-56v-175h72q112 0 112 91q0 46 -31 65t-97 19zM417 109
q69 0 105 20.5t36 77.5q0 104 -128 104h-83v-202h70z" />
    <glyph glyph-name="uni0182" unicode="&#x182;" horiz-adv-x="592" 
d="M299 442q130 0 201 -54.5t71 -160.5q0 -113 -73.5 -170t-197.5 -57h-227v692h419l-16 -113h-256v-137h79zM292 109q125 0 125 116q0 113 -129 113h-68v-229h72z" />
    <glyph glyph-name="uni0183" unicode="&#x183;" horiz-adv-x="596" 
d="M354 537q95 0 147 -73t52 -204q0 -122 -57 -199t-153 -77q-87 0 -139 68l-8 -52h-126v741h361l-15 -102h-204v-175q52 73 142 73zM304 89q101 0 101 171q0 95 -24.5 133t-70.5 38q-59 0 -98 -67v-218q35 -57 92 -57z" />
    <glyph glyph-name="uni0184" unicode="&#x184;" horiz-adv-x="605" 
d="M315 452q130 0 201 -55t71 -165q0 -117 -73.5 -174.5t-197.5 -57.5h-227v500l-73 48q55 58 95 144h125v-240h79zM308 109q61 0 93 28t32 93q0 117 -129 117h-68v-238h72z" />
    <glyph glyph-name="uni0185" unicode="&#x185;" horiz-adv-x="536" 
d="M272 364q243 0 243 -182q0 -89 -61.5 -135.5t-159.5 -46.5h-209v347l-74 49q55 57 96 134h120v-166h45zM279 96q90 0 90 88q0 44 -22.5 65t-76.5 21h-43v-174h52z" />
    <glyph glyph-name="uni0186" unicode="&#x186;" horiz-adv-x="571" 
d="M241 708q134 0 213 -94.5t79 -265.5q0 -174 -84 -269t-224 -95q-125 0 -214 87l67 84q37 -27 68 -41t72 -14q75 0 118 59.5t43 187.5q0 250 -146 250q-75 0 -143 -49l-71 85q94 75 222 75z" />
    <glyph glyph-name="uni0187" unicode="&#x187;" horiz-adv-x="571" 
d="M590 847q73 0 130 -38l-43 -89q-37 21 -70 21q-54 0 -54 -65v-43l-65 -75q-67 39 -135 39q-74 0 -117 -60.5t-43 -189.5q0 -125 43.5 -186t118.5 -61q63 0 138 58l68 -87q-85 -87 -213 -87q-141 0 -225.5 95t-84.5 268q0 168 85 264.5t209 96.5q54 0 93 -17
q3 75 45 115.5t120 40.5z" />
    <glyph glyph-name="uni0188" unicode="&#x188;" horiz-adv-x="478" 
d="M505 757q73 0 130 -38l-44 -89q-37 21 -69 21q-55 0 -55 -65v-104l-53 -73q-52 27 -111 27q-115 0 -115 -174q0 -164 112 -164q47 0 105 37l62 -89q-76 -62 -174 -62q-118 0 -186.5 75t-68.5 202q0 126 66.5 205.5t172.5 79.5q35 0 62 -9v53q0 81 42.5 124t123.5 43z" />
    <glyph glyph-name="uni0189" unicode="&#x189;" horiz-adv-x="663" 
d="M267 692q60 0 108 -8t96 -30.5t80.5 -60t52.5 -99.5t20 -145q0 -100 -28.5 -171.5t-79 -108.5t-107 -53t-125.5 -16h-198v307h-71v92h71v293h181zM293 108q85 0 131.5 52.5t46.5 188.5q0 72 -13.5 120t-40 72t-56.5 33.5t-71 9.5h-57v-185h141v-92h-141v-199h60z" />
    <glyph glyph-name="uni018A" unicode="&#x18a;" horiz-adv-x="777" 
d="M381 692q60 0 108 -8t96 -30.5t80.5 -60t52.5 -99.5t20 -145q0 -100 -28.5 -171.5t-79 -108.5t-107 -53t-125.5 -16h-198v585h-28q-48 0 -48 -44q0 -24 16 -67l-91 -41q-44 64 -44 117q0 66 47 104t128 38h201zM407 108q85 0 131.5 52.5t46.5 188.5q0 72 -13.5 120
t-40 72t-56.5 33.5t-71 9.5h-57v-476h60z" />
    <glyph glyph-name="uni018B" unicode="&#x18b;" horiz-adv-x="592" 
d="M519 692v-692h-234q-121 0 -192.5 54.5t-71.5 165.5q0 106 72 164t200 58h79v137h-266v113h413zM300 109h72v229h-68q-129 0 -129 -118q0 -60 32 -85.5t93 -25.5z" />
    <glyph glyph-name="uni018C" unicode="&#x18c;" horiz-adv-x="599" 
d="M529 741v-741h-125l-8 65q-56 -81 -152 -81q-97 0 -149 75t-52 202q0 121 59 198.5t158 77.5q73 0 127 -54v156h-211v102h353zM287 90q59 0 100 64v228q-42 50 -91 50t-77 -42.5t-28 -128.5q0 -171 96 -171z" />
    <glyph glyph-name="uni018D" unicode="&#x18d;" horiz-adv-x="578" 
d="M387 71q56 -31 77 -63.5t21 -77.5q0 -65 -52.5 -108t-152.5 -43q-110 0 -188 59l66 77q55 -35 111 -35q78 0 78 53q0 27 -19.5 44t-85.5 44q-107 44 -155.5 103.5t-48.5 159.5q0 116 68 189t183 73q116 0 183 -68.5t67 -188.5q0 -145 -152 -218zM186 283q0 -71 25 -106.5
t101 -70.5q80 62 80 179q0 155 -102 155q-104 0 -104 -157z" />
    <glyph glyph-name="uni018E" unicode="&#x18e;" horiz-adv-x="528" 
d="M46 692h409v-692h-415v108h267v191h-217v106h217v180h-261v107z" />
    <glyph glyph-name="uni018F" unicode="&#x18f;" horiz-adv-x="642" 
d="M310 708q140 0 216.5 -90t76.5 -265q0 -181 -77.5 -275t-211.5 -94q-142 0 -214 92.5t-72 260.5q0 31 5 63h420q-7 198 -155 198q-82 0 -163 -59l-68 81q103 88 243 88zM312 93q66 0 101.5 48t39.5 155h-282q3 -203 141 -203z" />
    <glyph glyph-name="uni0190" unicode="&#x190;" horiz-adv-x="536" 
d="M288 708q132 0 228 -90l-73 -77q-64 58 -139 58q-52 0 -76 -24t-24 -63q0 -44 29 -68.5t81 -24.5h73l-18 -108h-53q-64 0 -97 -28t-33 -79q0 -52 32.5 -80.5t91.5 -28.5q80 0 145 63l81 -77q-89 -97 -239 -97q-117 0 -191.5 58t-74.5 154q0 76 46 119.5t125 52.5
q-73 16 -111.5 57t-38.5 102q0 79 64.5 130t171.5 51z" />
    <glyph glyph-name="uni0191" unicode="&#x191;" horiz-adv-x="488" 
d="M459 585h-239v-196h208v-107h-208v-281h1v-39q0 -89 -50.5 -135.5t-138.5 -46.5q-80 0 -135 42l50 88q37 -21 70 -21q56 0 56 64v739h402z" />
    <glyph glyph-name="florin" unicode="&#x192;" horiz-adv-x="364" 
d="M307 651q-40 0 -56 -16.5t-16 -55.5v-49h127l-16 -100h-111v-377q0 -61 -13.5 -106t-42.5 -76t-62.5 -51t-83.5 -39l-46 103q57 27 81.5 58.5t24.5 101.5v386h-82v100h82v53q0 77 50.5 125.5t143.5 48.5q77 0 148 -32l-39 -94q-45 20 -89 20z" />
    <glyph glyph-name="uni0193" unicode="&#x193;" horiz-adv-x="606" 
d="M625 847q75 0 130 -38l-43 -89q-37 21 -70 21q-54 0 -54 -65v-51l-70 -73q-78 47 -150 47q-79 0 -127.5 -62.5t-48.5 -190.5q0 -135 37.5 -193.5t116.5 -58.5q57 0 103 25v169h-97l-15 107h255v-341q-112 -70 -247 -70q-150 0 -228.5 92.5t-78.5 270.5q0 167 90.5 264
t216.5 97q64 0 115 -23q2 77 43.5 119.5t121.5 42.5z" />
    <glyph glyph-name="uni0194" unicode="&#x194;" horiz-adv-x="566" 
d="M574 692l-211 -606q35 -59 50.5 -101t15.5 -86q0 -56 -35.5 -87.5t-108.5 -31.5q-72 0 -108 31.5t-36 87.5q0 39 15.5 80t51.5 107l-217 606h157l138 -509l138 509h150zM315 -91q0 31 -30 98q-30 -67 -30 -98q0 -33 30 -33t30 33z" />
    <glyph glyph-name="uni0195" unicode="&#x195;" horiz-adv-x="874" 
d="M797 530q28 -153 28 -280q0 -68 -22 -121t-58.5 -83.5t-80.5 -46t-92 -15.5q-87 0 -143.5 49t-56.5 143v186q0 43 -15 60.5t-43 17.5q-56 0 -102 -73v-367h-142v741l142 15v-286q65 76 154 76q69 0 108.5 -42.5t39.5 -117.5v-206q0 -90 68 -90q41 0 70.5 41t29.5 130
q0 125 -26 269h141z" />
    <glyph glyph-name="uni0196" unicode="&#x196;" horiz-adv-x="385" 
d="M337 114l50 -88q-55 -42 -135 -42q-88 0 -138.5 46.5t-50.5 135.5v526h147v-487h1v-48q0 -64 56 -64q33 0 70 21z" />
    <glyph glyph-name="uni0197" unicode="&#x197;" horiz-adv-x="326" 
d="M318 414v-109h-82v-305h-147v305h-81v109h81v278h147v-278h82z" />
    <glyph glyph-name="uni0198" unicode="&#x198;" horiz-adv-x="644" 
d="M459 0l-233 369l146 227q39 62 76 87t96 25q64 0 110 -37l-41 -85q-24 14 -50 14q-22 0 -37 -10.5t-37 -42.5l-107 -167l249 -380h-172zM220 692v-692h-147v692h147z" />
    <glyph glyph-name="uni0199" unicode="&#x199;" horiz-adv-x="542" 
d="M279 651q-36 0 -51.5 -17t-15.5 -55v-579h-142v583q0 77 50.5 125.5t143.5 48.5q74 0 140 -32l-39 -94q-43 20 -86 20zM365 297l184 -297h-161l-171 290l170 240h147z" />
    <glyph glyph-name="uni019A" unicode="&#x19a;" horiz-adv-x="330" 
d="M292 103l29 -101q-41 -18 -91 -18q-65 0 -101 37.5t-36 106.5v193h-85v101h85v319l142 16v-335h83v-101h-83v-189q0 -35 29 -35q16 0 28 6z" />
    <glyph glyph-name="uni019B" unicode="&#x19b;" horiz-adv-x="520" 
d="M375 461q42 -183 75.5 -272t86.5 -159l-136 -46q-51 79 -81.5 165.5t-61.5 244.5l-107 -410l-140 33l159 474h71q-12 52 -28 84l-59 -51l-80 47l75 69q-34 15 -86 22l18 95q100 -16 153 -48l70 63l62 -68l-65 -57q44 -62 74 -186z" />
    <glyph glyph-name="uni019C" unicode="&#x19c;" horiz-adv-x="919" 
d="M699 692h147v-692h-128l-11 67q-67 -83 -158 -83q-106 0 -148 94q-40 -49 -80 -71.5t-90 -22.5q-79 0 -123.5 54t-44.5 142v512h147v-506q0 -43 17.5 -66.5t48.5 -23.5q29 0 52.5 17.5t52.5 55.5v11v512h147v-506q0 -43 17.5 -66.5t48.5 -23.5t54.5 17t50.5 57v522z" />
    <glyph glyph-name="uni019D" unicode="&#x19d;" horiz-adv-x="668" 
d="M462 692h133v-692h-189l-220 549q20 -155 20 -280v-308q0 -88 -47.5 -134.5t-129.5 -46.5q-78 0 -135 42l50 85q37 -21 71 -21q58 0 58 64v742h185l224 -550q-20 134 -20 246v304z" />
    <glyph glyph-name="uni019E" unicode="&#x19e;" horiz-adv-x="579" 
d="M366 546q70 0 109 -42.5t39 -117.5v-606l-142 16v566q0 43 -14.5 60.5t-43.5 17.5q-56 0 -102 -74v-366h-142v530h123l11 -67q67 83 162 83z" />
    <glyph glyph-name="uni019F" unicode="&#x19f;" horiz-adv-x="691" 
d="M346 708q144 0 225.5 -94.5t81.5 -267.5q0 -170 -82 -266t-225 -96q-144 0 -226 95t-82 267q0 169 82.5 265.5t225.5 96.5zM346 598q-142 0 -156 -204h311q-13 204 -155 204zM346 94q145 0 156 214h-313q11 -214 157 -214z" />
    <glyph glyph-name="Ohorn" unicode="&#x1a0;" horiz-adv-x="712" 
d="M701 686q0 -97 -99 -117q51 -90 51 -223q0 -170 -82 -266t-225 -96q-144 0 -226 95t-82 267q0 169 82.5 265.5t225.5 96.5q128 0 205 -74q49 7 49 55q0 36 -13 69l95 15q19 -36 19 -87zM346 94q76 0 114 59.5t38 192.5t-38 192.5t-114 59.5t-114.5 -60t-38.5 -192
q0 -252 153 -252z" />
    <glyph glyph-name="ohorn" unicode="&#x1a1;" horiz-adv-x="618" 
d="M625 522q0 -101 -104 -118q25 -61 25 -139q0 -127 -68 -204t-186 -77q-119 0 -186.5 74.5t-67.5 206.5q0 128 68 204.5t187 76.5q117 0 185 -73q25 3 35.5 15.5t10.5 36.5q0 37 -13 69l95 15q19 -36 19 -87zM292 90q106 0 106 175t-105 175q-107 0 -107 -175t106 -175z
" />
    <glyph glyph-name="uni01A2" unicode="&#x1a2;" horiz-adv-x="952" 
d="M685 709q92 0 143 -47t51 -137v-733h-148v738q0 74 -63 74q-37 0 -78 -19q63 -95 63 -239q0 -170 -82 -266t-225 -96q-144 0 -226 95t-82 267q0 169 82.5 265.5t225.5 96.5q102 0 175 -52q78 53 164 53zM346 94q76 0 114 59.5t38 192.5t-38 192.5t-114 59.5t-114.5 -60
t-38.5 -192q0 -252 153 -252z" />
    <glyph glyph-name="uni01A3" unicode="&#x1a3;" horiz-adv-x="820" 
d="M567 546q87 0 135 -47t48 -137v-582l-142 16v576q0 69 -60 69q-23 0 -44 -7q42 -68 42 -169q0 -127 -68 -204t-186 -77q-119 0 -186.5 74.5t-67.5 206.5q0 128 68 204.5t187 76.5q79 0 136 -36q65 36 138 36zM292 90q106 0 106 175t-105 175q-107 0 -107 -175t106 -175z
" />
    <glyph glyph-name="uni01A4" unicode="&#x1a4;" horiz-adv-x="722" 
d="M414 692q135 0 209.5 -56t74.5 -167q0 -116 -74 -174.5t-198 -58.5h-79v-236h-147v585h-28q-48 0 -48 -44q0 -24 16 -67l-91 -41q-44 64 -44 117q0 66 47 104t128 38h234zM414 344q64 0 98 29t34 96q0 117 -134 117h-65v-242h67z" />
    <glyph glyph-name="uni01A5" unicode="&#x1a5;" horiz-adv-x="596" 
d="M354 546q199 0 199 -280q0 -125 -56 -203.5t-154 -78.5q-81 0 -131 57v-245l-142 -16v803q0 77 50.5 125.5t143.5 48.5q74 0 140 -32l-39 -94q-43 20 -86 20q-36 0 -51.5 -17t-15.5 -55v-105q57 72 142 72zM301 90q104 0 104 175q0 96 -23.5 136t-71.5 40q-57 0 -98 -68
v-231q34 -52 89 -52z" />
    <glyph glyph-name="uni01A6" unicode="&#x1a6;" horiz-adv-x="614" 
d="M443 -116l-148 271h-75v-155h-147v692h147v-116h69q279 0 279 -207q0 -69 -33 -113t-103 -74l178 -298h-167zM220 470v-211h77q119 0 119 110q0 53 -31.5 77t-98.5 24h-66z" />
    <glyph glyph-name="uni01A7" unicode="&#x1a7;" horiz-adv-x="556" 
d="M289 708q107 0 172 -52t65 -139q0 -78 -50.5 -126.5t-162.5 -82.5q-75 -23 -103.5 -50t-28.5 -69q0 -44 31 -68t82 -24q92 0 174 66l75 -82q-102 -97 -259 -97q-116 0 -186 59t-70 153q0 87 51.5 135.5t154.5 81.5q82 26 111 49t29 62q0 37 -25.5 55.5t-69.5 18.5
q-87 0 -158 -58l-71 81q101 87 239 87z" />
    <glyph glyph-name="uni01A8" unicode="&#x1a8;" horiz-adv-x="470" 
d="M244 546q92 0 145.5 -44t53.5 -113q0 -63 -38 -99t-121 -60q-70 -20 -91.5 -36.5t-21.5 -46.5q0 -28 21.5 -44t55.5 -16q73 0 142 52l69 -78q-84 -77 -216 -77q-94 0 -157 45.5t-63 123.5q0 68 41.5 105t127.5 60q65 19 86 35t21 43q0 21 -17.5 34t-51.5 13
q-68 0 -135 -42l-53 81q88 64 202 64z" />
    <glyph glyph-name="uni01A9" unicode="&#x1a9;" horiz-adv-x="503" 
d="M477 692v-109h-288l175 -209v-65l-176 -198h289v-111h-451v109l199 230l-199 244v109h451z" />
    <glyph glyph-name="uni01AA" unicode="&#x1aa;" horiz-adv-x="380" 
d="M440 -94l49 -84q-55 -42 -136 -42q-85 0 -135 47t-50 135v481q-31 -11 -61 -11q-66 0 -108.5 44t-42.5 117t47.5 118.5t125.5 45.5q84 0 132.5 -47t48.5 -129v-631q0 -64 58 -64q32 0 72 20zM133 532q15 0 35 5v63q0 56 -42 56q-44 0 -44 -60q0 -64 51 -64z" />
    <glyph glyph-name="uni01AB" unicode="&#x1ab;" horiz-adv-x="380" 
d="M346 101l41 -76v-62q0 -90 -48 -136t-135 -46q-82 0 -138 41l49 86q42 -22 80 -22q66 0 66 64v35q-5 -1 -17 -1q-78 1 -119.5 47.5t-41.5 134.5v264h-79v100h79v116l142 17v-133h122l-14 -100h-108v-271q0 -36 13 -52t43 -16q31 0 65 10z" />
    <glyph glyph-name="uni01AC" unicode="&#x1ac;" horiz-adv-x="585" 
d="M582 692l-15 -115h-175v-577h-148v577h-71q-48 0 -48 -41q0 -22 17 -60l-99 -44q-38 61 -38 116q0 67 48 105.5t133 38.5h396z" />
    <glyph glyph-name="uni01AD" unicode="&#x1ad;" horiz-adv-x="380" 
d="M338 116l49 -91q-59 -41 -138 -41q-166 2 -166 182v264h-79v100h79v50q0 81 46 129t130 48q70 0 127 -38l-44 -84q-35 20 -66 20q-51 0 -51 -64v-61h122l-14 -100h-108v-261q0 -38 13 -55t40 -17q28 0 60 19z" />
    <glyph glyph-name="uni01AE" unicode="&#x1ae;" horiz-adv-x="536" 
d="M397 -111q33 0 70 21l50 -88q-55 -42 -135 -42q-88 0 -138.5 46.5t-50.5 135.5v39h1v576h-184v115h522l-16 -115h-175v-624q0 -64 56 -64z" />
    <glyph glyph-name="Uhorn" unicode="&#x1af;" horiz-adv-x="713" 
d="M714 773q19 -36 19 -87q0 -59 -37.5 -89.5t-105.5 -32.5v-336q0 -109 -68.5 -176.5t-195.5 -67.5q-128 0 -195.5 66.5t-67.5 177.5v464h147v-457q0 -139 116 -139q117 0 117 139v457h147v-56q42 8 42 53q0 36 -13 69z" />
    <glyph glyph-name="uhorn" unicode="&#x1b0;" horiz-adv-x="633" 
d="M628 609q19 -36 19 -87q0 -59 -37.5 -89.5t-105.5 -32.5v-400h-123l-7 71q-56 -87 -161 -87q-72 0 -110 43.5t-38 121.5v381h142v-363q0 -42 14 -59.5t44 -17.5q57 0 97 69v371h142v-57q42 7 42 52q0 37 -13 69z" />
    <glyph glyph-name="uni01B1" unicode="&#x1b1;" horiz-adv-x="691" 
d="M346 -16q-142 0 -225 89t-83 232q0 180 131 279h-109v108h227v-103q-49 -51 -71.5 -114t-22.5 -170q0 -211 153 -211q74 0 113 53.5t39 158.5q0 104 -23.5 167.5t-70.5 115.5v103h228v-108h-110q131 -89 131 -278q0 -141 -83.5 -231.5t-223.5 -90.5z" />
    <glyph glyph-name="uni01B2" unicode="&#x1b2;" horiz-adv-x="654" 
d="M446 708q144 0 144 -157v-257q0 -144 -77 -227t-207 -83q-112 0 -177.5 64.5t-65.5 164.5v479h147v-477q0 -57 26 -88t74 -31q63 0 98 49t35 149v263q0 23 -7.5 32.5t-25.5 9.5q-16 0 -29 -5l-26 97q39 17 91 17z" />
    <glyph glyph-name="uni01B3" unicode="&#x1b3;" horiz-adv-x="621" 
d="M218 0v260l-222 432h161l138 -314l79 193q29 74 68.5 105.5t105.5 31.5q62 0 117 -38l-43 -84q-28 17 -57 17q-23 0 -37.5 -12.5t-30.5 -45.5l-132 -284v-261h-147z" />
    <glyph glyph-name="uni01B4" unicode="&#x1b4;" horiz-adv-x="518" 
d="M57 -220l-15 102q76 10 111.5 36t58.5 82h-49l-165 530h151l106 -438l80 351q16 73 48 106t93 33q39 0 80 -16l-26 -95q-13 5 -29 5q-17 0 -26.5 -8.5t-16.5 -32.5l-106 -414q-28 -115 -100.5 -174t-194.5 -67z" />
    <glyph glyph-name="uni01B5" unicode="&#x1b5;" horiz-adv-x="539" 
d="M181 119h327l-16 -119h-471v107l134 191h-83v98h151l126 180h-296v116h450v-108l-130 -188h85v-98h-153z" />
    <glyph glyph-name="uni01B6" unicode="&#x1b6;" horiz-adv-x="454" 
d="M173 105h260l-14 -105h-403v97l99 128h-69v90h139l86 111h-234v104h391v-97l-92 -118h66v-90h-136z" />
    <glyph glyph-name="uni01B7" unicode="&#x1b7;" horiz-adv-x="539" 
d="M289 402q106 -3 162.5 -55t56.5 -143q0 -96 -72 -158t-197 -62q-150 0 -234 100l77 75q65 -64 150 -64q59 0 91.5 30t32.5 84q0 104 -133 104h-96v86l184 184h-268v109h433v-106z" />
    <glyph glyph-name="uni01B8" unicode="&#x1b8;" horiz-adv-x="539" 
d="M457 159l77 -75q-86 -100 -241 -100q-120 0 -191 60.5t-71 155.5q0 89 58.5 143.5t160.5 58.5l-187 184v106h433v-109h-267l183 -186v-84h-96q-133 0 -133 -111q0 -49 31.5 -78t86.5 -29q91 0 156 64z" />
    <glyph glyph-name="uni01B9" unicode="&#x1b9;" horiz-adv-x="503" 
d="M438 -49l74 -71q-87 -100 -232 -100q-118 0 -188.5 62.5t-70.5 158.5t58 150.5t163 59.5l-191 220v99h424v-108h-264l179 -214v-84h-89q-68 0 -100.5 -28t-32.5 -88q0 -57 32 -87.5t88 -30.5q80 0 150 61z" />
    <glyph glyph-name="uni01BA" unicode="&#x1ba;" horiz-adv-x="499" 
d="M181 -221q-153 52 -153 150q0 54 41 85t129 45q72 12 101.5 28.5t29.5 50.5q0 54 -81 54h-137v81l166 154h-254v103h421v-94l-180 -158h34q84 0 131.5 -38t47.5 -105q0 -140 -200 -171q-70 -11 -93 -21.5t-23 -29.5q0 -27 57 -53z" />
    <glyph glyph-name="uni01BB" unicode="&#x1bb;" horiz-adv-x="512" 
d="M193 110h283l-16 -110h-429v103q63 63 137 139h-104v98h191q60 77 60 144q0 43 -25 68t-67 25q-68 0 -127 -71l-85 68q86 113 225 113q104 0 164.5 -54.5t60.5 -136.5q0 -80 -53 -156h59v-98h-140q-49 -52 -134 -132z" />
    <glyph glyph-name="uni01BC" unicode="&#x1bc;" horiz-adv-x="535" 
d="M470 692l-17 -103h-256v-165q53 26 109 26q86 0 139.5 -59.5t53.5 -164.5q0 -109 -71 -175.5t-190 -66.5q-134 0 -222 98l80 75q58 -64 137 -64q58 0 89 34t31 99q0 124 -101 124q-42 0 -92 -23h-99v365h409z" />
    <glyph glyph-name="uni01BD" unicode="&#x1bd;" horiz-adv-x="473" 
d="M410 530l-21 -105h-199v-93q38 15 83 15q72 0 120.5 -46.5t48.5 -127.5q0 -85 -62 -137t-164 -52q-114 0 -195 79l72 77q34 -26 59 -36.5t61 -10.5q39 0 62 21t23 61q0 38 -19 56t-50 18q-37 0 -73 -16h-95v297h349z" />
    <glyph glyph-name="uni01BE" unicode="&#x1be;" horiz-adv-x="513" 
d="M318 434q156 -45 156 -214q0 -106 -66.5 -170.5t-176.5 -64.5q-127 0 -220 90l71 73q64 -57 133 -57q54 0 83 34t29 96q0 66 -29.5 102.5t-91.5 52.5l-60 13v144h-72v87h72v121l142 15v-136h100v-87h-100v-94z" />
    <glyph glyph-name="uni01BF" unicode="&#x1bf;" horiz-adv-x="591" 
d="M374 546q78 0 128.5 -52t50.5 -141q0 -64 -19.5 -114.5t-60 -90t-84.5 -67.5t-111 -61l-66 -33v-191l-142 -16v750h125l8 -68q69 84 171 84zM255 118q75 45 112.5 100.5t37.5 131.5q0 92 -76 92q-65 0 -117 -59v-291z" />
    <glyph glyph-name="uni01C0" unicode="&#x1c0;" horiz-adv-x="271" 
d="M198 755v-755h-125v741z" />
    <glyph glyph-name="uni01C1" unicode="&#x1c1;" horiz-adv-x="466" 
d="M198 755v-755h-125v741zM394 755v-755h-125v741z" />
    <glyph glyph-name="uni01C2" unicode="&#x1c2;" horiz-adv-x="326" 
d="M318 399h-92v-64h92v-85h-92v-250h-125v250h-93v85h93v64h-93v85h93v257l125 14v-271h92v-85z" />
    <glyph glyph-name="uni01C3" unicode="&#x1c3;" horiz-adv-x="317" 
d="M220 755v-526h-124v512zM158 155q36 0 61 -25t25 -60t-25 -60.5t-61 -25.5q-35 0 -60 25.5t-25 60.5t25 60t60 25z" />
    <glyph glyph-name="uni01C4" unicode="&#x1c4;" horiz-adv-x="1164" 
d="M1032 935l52 -60l-140 -124h-88l-140 124l53 60l131 -83zM254 692q60 0 108 -8t96 -30.5t80.5 -60t52.5 -99.5t20 -145q0 -100 -28.5 -171.5t-79 -108.5t-107 -53t-125.5 -16h-198v692h181zM1128 692v-113l-310 -460h315l-16 -119h-471v111l316 465h-284v116h450z
M277 584h-57v-476h60q85 0 131.5 52.5t46.5 188.5q0 72 -13.5 120t-40 72t-56.5 33.5t-71 9.5z" />
    <glyph glyph-name="uni01C5" unicode="&#x1c5;" horiz-adv-x="1094" 
d="M1001 806l52 -60l-140 -131h-88l-140 131l53 60l131 -89zM254 692q60 0 108 -8t96 -30.5t80.5 -60t52.5 -99.5t20 -145q0 -100 -28.5 -171.5t-79 -108.5t-107 -53t-125.5 -16h-198v692h181zM277 584h-57v-476h60q85 0 131.5 52.5t46.5 188.5q0 72 -13.5 120t-40 72
t-56.5 33.5t-71 9.5zM1068 530v-101l-249 -319h254l-14 -110h-403v102l249 319h-228v109h391z" />
    <glyph glyph-name="uni01C6" unicode="&#x1c6;" horiz-adv-x="1053" 
d="M872 615h-88l-140 131l53 60l131 -89l132 89l52 -60zM387 493v264l142 -16v-741h-125l-8 65q-56 -81 -152 -81q-98 0 -149.5 75.5t-51.5 205.5q0 124 59 202.5t156 78.5q74 0 129 -53zM778 110h254l-14 -110h-403v102l249 319h-228v109h391v-101zM286 90q58 0 101 64v237
q-42 50 -92 50q-104 0 -104 -176q0 -175 95 -175z" />
    <glyph glyph-name="uni01C7" unicode="&#x1c7;" horiz-adv-x="801" 
d="M220 692v-574h274l-16 -118h-405v692h147zM732 692v-589q0 -115 -55.5 -173.5t-157.5 -91.5l-39 105q64 25 84.5 61t20.5 104v584h147z" />
    <glyph glyph-name="uni01C8" unicode="&#x1c8;" horiz-adv-x="775" 
d="M634 803q38 0 62.5 -23.5t24.5 -59.5t-24.5 -59.5t-62.5 -23.5t-62 23.5t-24 59.5t24 59.5t62 23.5zM220 692v-574h274l-16 -118h-405v692h147zM705 530v-477q0 -61 -14 -106t-42.5 -76t-62 -51t-83.5 -39l-47 103q58 27 82.5 59t24.5 101v486h142z" />
    <glyph glyph-name="uni01C9" unicode="&#x1c9;" horiz-adv-x="577" 
d="M435 803q38 0 62.5 -23.5t24.5 -59.5t-24.5 -59.5t-62.5 -23.5t-62 23.5t-24 59.5t24 59.5t62 23.5zM202 -16q-65 0 -101 37.5t-36 106.5v613l142 16v-625q0 -35 29 -35q16 0 28 6l29 -101q-41 -18 -91 -18zM507 530v-477q0 -61 -14 -106t-42.5 -76t-62 -51t-83.5 -39
l-47 103q58 27 82.5 59t24.5 101v486h142z" />
    <glyph glyph-name="uni01CA" unicode="&#x1ca;" horiz-adv-x="982" 
d="M595 692v-692h-189l-220 549q20 -155 20 -280v-269h-133v692h185l224 -550q-20 134 -20 246v304h133zM913 692v-589q0 -115 -55.5 -173.5t-157.5 -91.5l-39 105q64 25 84.5 61t20.5 104v584h147z" />
    <glyph glyph-name="uni01CB" unicode="&#x1cb;" horiz-adv-x="949" 
d="M808 803q38 0 62.5 -23.5t24.5 -59.5t-24.5 -59.5t-62.5 -23.5t-62 23.5t-24 59.5t24 59.5t62 23.5zM595 692v-692h-189l-220 549q20 -155 20 -280v-269h-133v692h185l224 -550q-20 134 -20 246v304h133zM879 530v-477q0 -61 -14 -106t-42.5 -76t-62 -51t-83.5 -39
l-47 103q58 27 82.5 59t24.5 101v486h142z" />
    <glyph glyph-name="uni01CC" unicode="&#x1cc;" horiz-adv-x="860" 
d="M718 637q-38 0 -62 23.5t-24 59.5t24 59.5t62 23.5t62.5 -23.5t24.5 -59.5t-24.5 -59.5t-62.5 -23.5zM366 546q70 0 109 -42.5t39 -117.5v-386h-142v362q0 43 -14.5 60.5t-43.5 17.5q-56 0 -102 -74v-366h-142v530h123l11 -67q67 83 162 83zM648 44v486h142v-477
q0 -61 -14 -106t-42.5 -76t-62 -51t-83.5 -39l-47 103q58 27 82.5 59t24.5 101z" />
    <glyph glyph-name="uni01CD" unicode="&#x1cd;" horiz-adv-x="586" 
d="M338 751h-88l-140 124l53 60l131 -83l132 83l52 -60zM439 0l-39 155h-217l-39 -155h-153l213 692h179l212 -692h-156zM211 264h161l-81 319z" />
    <glyph glyph-name="uni01CE" unicode="&#x1ce;" horiz-adv-x="547" 
d="M313 615h-88l-140 131l53 60l131 -89l132 89l52 -60zM475 147q0 -31 9 -45.5t30 -21.5l-30 -94q-93 8 -122 78q-52 -80 -159 -80q-79 0 -125.5 45.5t-46.5 118.5q0 87 63 133t181 46h61v26q0 49 -22 68t-73 19q-56 0 -140 -28l-32 95q99 39 196 39q210 0 210 -185v-214z
M242 86q60 0 94 59v101h-47q-115 0 -115 -86q0 -35 17.5 -54.5t50.5 -19.5z" />
    <glyph glyph-name="uni01CF" unicode="&#x1cf;" horiz-adv-x="294" 
d="M279 935l52 -60l-140 -124h-88l-140 124l53 60l131 -83zM220 692v-692h-147v692h147z" />
    <glyph glyph-name="uni01D0" unicode="&#x1d0;" horiz-adv-x="282" 
d="M273 806l52 -60l-140 -131h-88l-140 131l53 60l131 -89zM212 530v-530h-142v530h142z" />
    <glyph glyph-name="uni01D1" unicode="&#x1d1;" horiz-adv-x="691" 
d="M478 935l52 -60l-140 -124h-88l-140 124l53 60l131 -83zM346 708q144 0 225.5 -94.5t81.5 -267.5q0 -170 -82 -266t-225 -96q-144 0 -226 95t-82 267q0 169 82.5 265.5t225.5 96.5zM346 598q-76 0 -114.5 -60t-38.5 -192q0 -252 153 -252q76 0 114 59.5t38 192.5
t-38 192.5t-114 59.5z" />
    <glyph glyph-name="uni01D2" unicode="&#x1d2;" horiz-adv-x="584" 
d="M424 806l52 -60l-140 -131h-88l-140 131l53 60l131 -89zM293 546q119 0 186 -74.5t67 -206.5q0 -127 -68 -204t-186 -77q-119 0 -186.5 74.5t-67.5 206.5q0 128 68 204.5t187 76.5zM293 440q-107 0 -107 -175t106 -175t106 175t-105 175z" />
    <glyph glyph-name="uni01D3" unicode="&#x1d3;" horiz-adv-x="654" 
d="M459 935l52 -60l-140 -124h-88l-140 124l53 60l131 -83zM590 692v-464q0 -109 -68.5 -176.5t-195.5 -67.5q-128 0 -195.5 66.5t-67.5 177.5v464h147v-457q0 -139 116 -139q117 0 117 139v457h147z" />
    <glyph glyph-name="uni01D4" unicode="&#x1d4;" horiz-adv-x="574" 
d="M417 806l52 -60l-140 -131h-88l-140 131l53 60l131 -89zM504 530v-530h-123l-7 71q-56 -87 -161 -87q-72 0 -110 43.5t-38 121.5v381h142v-363q0 -42 14 -59.5t44 -17.5q57 0 97 69v371h142z" />
    <glyph glyph-name="uni01D5" unicode="&#x1d5;" horiz-adv-x="654" 
d="M479 931h-298v100h298v-100zM213 893q32 0 53.5 -21.5t21.5 -52.5t-21.5 -52.5t-53.5 -21.5q-31 0 -53 21.5t-22 52.5t22 52.5t53 21.5zM439 893q32 0 54 -21.5t22 -52.5t-22 -52.5t-54 -21.5q-31 0 -52.5 21.5t-21.5 52.5t21.5 52.5t52.5 21.5zM590 692v-464
q0 -109 -68.5 -176.5t-195.5 -67.5q-128 0 -195.5 66.5t-67.5 177.5v464h147v-457q0 -139 116 -139q117 0 117 139v457h147z" />
    <glyph glyph-name="uni01D6" unicode="&#x1d6;" horiz-adv-x="574" 
d="M434 799h-298v100h298v-100zM171 755q32 0 53.5 -21.5t21.5 -52.5t-21.5 -52.5t-53.5 -21.5q-31 0 -53 21.5t-22 52.5t22 52.5t53 21.5zM397 755q32 0 54 -21.5t22 -52.5t-22 -52.5t-54 -21.5q-31 0 -52.5 21.5t-21.5 52.5t21.5 52.5t52.5 21.5zM504 530v-530h-123l-7 71
q-56 -87 -161 -87q-72 0 -110 43.5t-38 121.5v381h142v-363q0 -42 14 -59.5t44 -17.5q57 0 97 69v371h142z" />
    <glyph glyph-name="uni01D7" unicode="&#x1d7;" horiz-adv-x="654" 
d="M400 1076l79 -76l-152 -137l-55 49zM208 895q31 0 53 -21.5t22 -52.5t-22 -52.5t-53 -21.5t-53 21.5t-22 52.5t22 52.5t53 21.5zM444 895q31 0 53 -21.5t22 -52.5t-22 -52.5t-53 -21.5q-32 0 -53.5 21.5t-21.5 52.5t21.5 52.5t53.5 21.5zM590 692v-464
q0 -109 -68.5 -176.5t-195.5 -67.5q-128 0 -195.5 66.5t-67.5 177.5v464h147v-457q0 -139 116 -139q117 0 117 139v457h147z" />
    <glyph glyph-name="uni01D8" unicode="&#x1d8;" horiz-adv-x="574" 
d="M358 936l79 -76l-152 -137l-55 49zM166 754q31 0 53 -21.5t22 -51.5q0 -31 -21.5 -52.5t-53.5 -21.5t-53.5 21.5t-21.5 52.5q0 30 22 51.5t53 21.5zM402 754q31 0 53 -21.5t22 -51.5q0 -31 -21.5 -52.5t-53.5 -21.5t-53.5 21t-21.5 53q0 30 21.5 51.5t53.5 21.5zM504 530
v-530h-123l-7 71q-56 -87 -161 -87q-72 0 -110 43.5t-38 121.5v381h142v-363q0 -42 14 -59.5t44 -17.5q57 0 97 69v371h142z" />
    <glyph glyph-name="uni01D9" unicode="&#x1d9;" horiz-adv-x="654" 
d="M456 1080l52 -60l-140 -124h-88l-140 124l53 60l131 -83zM209 895q31 0 53 -21.5t22 -52.5t-22 -52.5t-53 -21.5q-32 0 -54 21.5t-22 52.5t22 52.5t54 21.5zM444 895q31 0 53 -21.5t22 -52.5t-22 -52.5t-53 -21.5t-53 21.5t-22 52.5t22 52.5t53 21.5zM590 692v-464
q0 -109 -68.5 -176.5t-195.5 -67.5q-128 0 -195.5 66.5t-67.5 177.5v464h147v-457q0 -139 116 -139q117 0 117 139v457h147z" />
    <glyph glyph-name="uni01DA" unicode="&#x1da;" horiz-adv-x="574" 
d="M417 939l52 -60l-140 -124h-88l-140 124l53 60l131 -83zM168 754q31 0 52.5 -21.5t21.5 -51.5q0 -31 -21 -52.5t-53 -21.5t-54 21.5t-22 52.5q0 30 22.5 51.5t53.5 21.5zM403 754q32 0 53.5 -21.5t21.5 -51.5q0 -32 -21.5 -53t-53.5 -21q-31 0 -53 21.5t-22 52.5
q0 30 22 51.5t53 21.5zM504 530v-530h-123l-7 71q-56 -87 -161 -87q-72 0 -110 43.5t-38 121.5v381h142v-363q0 -42 14 -59.5t44 -17.5q57 0 97 69v371h142z" />
    <glyph glyph-name="uni01DB" unicode="&#x1db;" horiz-adv-x="654" 
d="M254 1076l129 -164l-55 -49l-152 137zM208 895q32 0 53.5 -21.5t21.5 -52.5t-21.5 -52.5t-53.5 -21.5q-31 0 -53 21.5t-22 52.5t22 52.5t53 21.5zM444 895q32 0 53.5 -21.5t21.5 -52.5t-21.5 -52.5t-53.5 -21.5q-31 0 -53 21.5t-22 52.5t22 52.5t53 21.5zM590 692v-464
q0 -109 -68.5 -176.5t-195.5 -67.5q-128 0 -195.5 66.5t-67.5 177.5v464h147v-457q0 -139 116 -139q117 0 117 139v457h147z" />
    <glyph glyph-name="uni01DC" unicode="&#x1dc;" horiz-adv-x="574" 
d="M212 936l129 -164l-55 -49l-152 137zM166 754q32 0 53.5 -21.5t21.5 -51.5q0 -32 -21.5 -53t-53.5 -21t-53.5 21.5t-21.5 52.5q0 30 22 51.5t53 21.5zM402 754q32 0 53.5 -21.5t21.5 -51.5q0 -32 -21.5 -53t-53.5 -21t-53.5 21.5t-21.5 52.5q0 30 22 51.5t53 21.5z
M504 530v-530h-123l-7 71q-56 -87 -161 -87q-72 0 -110 43.5t-38 121.5v381h142v-363q0 -42 14 -59.5t44 -17.5q57 0 97 69v371h142z" />
    <glyph glyph-name="uni01DD" unicode="&#x1dd;" horiz-adv-x="555" 
d="M269 546q124 0 186 -75t62 -205q0 -126 -65 -204t-180 -78q-109 0 -174 71.5t-65 198.5q0 30 3 54h342q-9 135 -114 135q-71 0 -134 -45l-60 81q83 67 199 67zM272 86q49 0 75.5 31t30.5 102h-210v-7q1 -59 28 -92.5t76 -33.5z" />
    <glyph glyph-name="uni01DE" unicode="&#x1de;" horiz-adv-x="586" 
d="M446 1031v-100h-298v100h298zM180 745q-31 0 -53 21.5t-22 52.5t22 52.5t53 21.5q32 0 53.5 -21.5t21.5 -52.5t-21.5 -52.5t-53.5 -21.5zM332 819q0 31 21.5 52.5t52.5 21.5q32 0 54 -21.5t22 -52.5t-22 -52.5t-54 -21.5q-31 0 -52.5 21.5t-21.5 52.5zM439 0l-39 155
h-217l-39 -155h-153l213 692h179l212 -692h-156zM211 264h161l-81 319z" />
    <glyph glyph-name="uni01DF" unicode="&#x1df;" horiz-adv-x="547" 
d="M418 899v-100h-298v100h298zM155 607q-31 0 -53 21.5t-22 52.5t22 52.5t53 21.5q32 0 53.5 -21.5t21.5 -52.5t-21.5 -52.5t-53.5 -21.5zM307 681q0 31 21.5 52.5t52.5 21.5q32 0 54 -21.5t22 -52.5t-22 -52.5t-54 -21.5q-31 0 -52.5 21.5t-21.5 52.5zM475 147
q0 -31 9 -45.5t30 -21.5l-30 -94q-93 8 -122 78q-52 -80 -159 -80q-79 0 -125.5 45.5t-46.5 118.5q0 87 63 133t181 46h61v26q0 49 -22 68t-73 19q-56 0 -140 -28l-32 95q99 39 196 39q210 0 210 -185v-214zM242 86q60 0 94 59v101h-47q-115 0 -115 -86q0 -35 17.5 -54.5
t50.5 -19.5z" />
    <glyph glyph-name="uni01E0" unicode="&#x1e0;" horiz-adv-x="586" 
d="M444 1032v-100h-298v100h298zM207 820q0 36 24 59.5t62 23.5t62.5 -23.5t24.5 -59.5t-24.5 -59.5t-62.5 -23.5t-62 23.5t-24 59.5zM439 0l-39 155h-217l-39 -155h-153l213 692h179l212 -692h-156zM211 264h161l-81 319z" />
    <glyph glyph-name="uni01E1" unicode="&#x1e1;" horiz-adv-x="547" 
d="M418 895v-100h-298v100h298zM182 679q0 36 24 59.5t62 23.5t62.5 -23.5t24.5 -59.5t-24.5 -59.5t-62.5 -23.5t-62 23.5t-24 59.5zM475 147q0 -31 9 -45.5t30 -21.5l-30 -94q-93 8 -122 78q-52 -80 -159 -80q-79 0 -125.5 45.5t-46.5 118.5q0 87 63 133t181 46h61v26
q0 49 -22 68t-73 19q-56 0 -140 -28l-32 95q99 39 196 39q210 0 210 -185v-214zM242 86q60 0 94 59v101h-47q-115 0 -115 -86q0 -35 17.5 -54.5t50.5 -19.5z" />
    <glyph glyph-name="uni01E2" unicode="&#x1e2;" horiz-adv-x="838" 
d="M630 884v-100h-298v100h298zM570 108h230v-108h-352l-29 155h-229l-54 -155h-156l272 692h510l-16 -107h-279l39 -182h247v-106h-224zM227 264h171l-60 319z" />
    <glyph glyph-name="uni01E3" unicode="&#x1e3;" horiz-adv-x="854" 
d="M577 758v-100h-298v100h298zM821 277q0 -10 -3 -55h-331q7 -72 39 -102t87 -30q63 0 129 46l59 -80q-89 -72 -201 -72q-136 0 -205 92q-65 -92 -189 -92q-81 0 -128 45.5t-47 118.5q0 87 64.5 133t184.5 46h61v25q0 49 -21.5 68t-72.5 19q-58 0 -140 -28l-33 96
q99 39 196 39q111 0 161 -70q62 70 161 70q105 0 167 -71.5t62 -197.5zM681 311v6q-2 132 -96 132q-88 0 -98 -138h194zM249 86q60 0 106 72q-10 37 -12 82v3h-47q-115 0 -115 -85q0 -34 17.5 -53t50.5 -19z" />
    <glyph glyph-name="uni01E4" unicode="&#x1e4;" horiz-adv-x="659" 
d="M657 265v-91h-65v-120q-112 -70 -244 -70q-152 0 -231 92.5t-79 270.5q0 169 92 265t231 96q129 0 227 -83l-76 -80q-72 54 -144 54q-79 0 -127.5 -62.5t-48.5 -190.5q0 -135 37.5 -193.5t116.5 -58.5q56 0 112 24v56h-111v91h111v47h-108l-13 95h255v-142h65z" />
    <glyph glyph-name="uni01E5" unicode="&#x1e5;" horiz-adv-x="544" 
d="M577 -19v-69h-54q-16 -63 -83.5 -97.5t-181.5 -34.5q-138 0 -192.5 42t-54.5 127h127q0 -43 25 -59.5t98 -16.5q112 0 135 39h-129v69h127q-22 32 -92 32h-78q-79 0 -118 26.5t-39 68.5q0 56 62 95q-94 51 -94 151q0 87 62.5 139.5t163.5 52.5q82 -2 135 14t113 50
l35 -109q-52 -20 -153 -20q50 -22 74 -54.5t24 -81.5q0 -79 -59 -128.5t-159 -49.5q-35 0 -62 7q-20 -13 -20 -35q0 -16 12.5 -24t48.5 -8h81q79 0 131 -34.5t63 -91.5h52zM264 451q-40 0 -63.5 -25.5t-23.5 -69.5q0 -45 23.5 -71t64.5 -26q87 0 87 99q0 93 -88 93z" />
    <glyph glyph-name="Gcaron" unicode="&#x1e6;" horiz-adv-x="641" 
d="M485 935l52 -60l-140 -124h-88l-140 124l53 60l131 -83zM362 708q128 0 226 -83l-77 -80q-71 54 -143 54q-79 0 -127.5 -62.5t-48.5 -190.5q0 -135 37.5 -193.5t116.5 -58.5q57 0 103 25v169h-97l-15 107h255v-341q-114 -70 -243 -70q-153 0 -232 92t-79 271
q0 170 92 265.5t232 95.5z" />
    <glyph glyph-name="gcaron" unicode="&#x1e7;" horiz-adv-x="544" 
d="M404 806l52 -60l-140 -131h-88l-140 131l53 60l131 -89zM509 610l35 -109q-52 -20 -153 -20q50 -22 74 -54.5t24 -81.5q0 -79 -59 -128.5t-159 -49.5q-35 0 -62 7q-20 -13 -20 -35q0 -35 61 -35h81q89 0 143 -42.5t54 -109.5q0 -81 -69.5 -126.5t-200.5 -45.5
q-138 0 -192.5 42t-54.5 127h127q0 -39 25 -55.5t98 -16.5q69 0 96.5 17t27.5 48q0 58 -83 58h-78q-79 0 -118 29.5t-39 74.5q0 60 62 99q-94 51 -94 151q0 87 62.5 139.5t163.5 52.5q82 -2 135 14t113 50zM264 451q-40 0 -63.5 -25.5t-23.5 -69.5q0 -45 23.5 -71t64.5 -26
q87 0 87 99q0 93 -88 93z" />
    <glyph glyph-name="uni01E8" unicode="&#x1e8;" horiz-adv-x="622" 
d="M461 935l52 -60l-140 -124h-88l-140 124l53 60l131 -83zM220 692v-692h-147v692h147zM613 692l-231 -312l249 -380h-172l-233 369l230 323h157z" />
    <glyph glyph-name="uni01E9" unicode="&#x1e9;" horiz-adv-x="542" 
d="M425 984l52 -60l-140 -124h-88l-140 124l53 60l131 -83zM212 757v-757h-142v741zM534 530l-169 -233l184 -297h-161l-171 290l170 240h147z" />
    <glyph glyph-name="uni01EA" unicode="&#x1ea;" horiz-adv-x="691" 
d="M449 -1q-118 -45 -118 -104q0 -46 54 -46q29 0 61 7l-10 -91q-37 -7 -68 -7q-63 0 -102.5 30.5t-39.5 81.5q0 71 67 118q-120 17 -187.5 110t-67.5 248q0 169 82.5 265.5t225.5 96.5q144 0 225.5 -94.5t81.5 -267.5q0 -135 -53.5 -225t-150.5 -122zM193 346
q0 -252 153 -252q76 0 114 59.5t38 192.5t-38 192.5t-114 59.5t-114.5 -60t-38.5 -192z" />
    <glyph glyph-name="uni01EB" unicode="&#x1eb;" horiz-adv-x="584" 
d="M375 -4q-109 -45 -109 -101q0 -46 54 -46q29 0 61 7l-10 -91q-37 -7 -68 -7q-63 0 -102.5 30.5t-39.5 81.5q0 72 70 120q-91 18 -142 90t-51 185q0 128 68 204.5t187 76.5t186 -74.5t67 -206.5q0 -102 -45 -173t-126 -96zM186 265q0 -175 106 -175t106 175t-105 175
q-107 0 -107 -175z" />
    <glyph glyph-name="uni01EC" unicode="&#x1ec;" horiz-adv-x="691" 
d="M495 884v-100h-298v100h298zM449 -1q-118 -45 -118 -104q0 -46 54 -46q29 0 61 7l-10 -91q-37 -7 -68 -7q-63 0 -102.5 30.5t-39.5 81.5q0 71 67 118q-120 17 -187.5 110t-67.5 248q0 169 82.5 265.5t225.5 96.5q144 0 225.5 -94.5t81.5 -267.5q0 -135 -53.5 -225
t-150.5 -122zM193 346q0 -252 153 -252q76 0 114 59.5t38 192.5t-38 192.5t-114 59.5t-114.5 -60t-38.5 -192z" />
    <glyph glyph-name="uni01ED" unicode="&#x1ed;" horiz-adv-x="584" 
d="M441 758v-100h-298v100h298zM375 -4q-109 -45 -109 -101q0 -46 54 -46q29 0 61 7l-10 -91q-37 -7 -68 -7q-63 0 -102.5 30.5t-39.5 81.5q0 72 70 120q-91 18 -142 90t-51 185q0 128 68 204.5t187 76.5t186 -74.5t67 -206.5q0 -102 -45 -173t-126 -96zM186 265
q0 -175 106 -175t106 175t-105 175q-107 0 -107 -175z" />
    <glyph glyph-name="uni01EE" unicode="&#x1ee;" horiz-adv-x="539" 
d="M304 751h-88l-140 124l53 60l131 -83l132 83l52 -60zM289 402q106 -3 162.5 -55t56.5 -143q0 -96 -72 -158t-197 -62q-150 0 -234 100l77 75q65 -64 150 -64q59 0 91.5 30t32.5 84q0 104 -133 104h-96v86l184 184h-268v109h433v-106z" />
    <glyph glyph-name="uni01EF" unicode="&#x1ef;" horiz-adv-x="503" 
d="M284 615h-88l-140 131l53 60l131 -89l132 89l52 -60zM260 211q222 -11 222 -202q0 -101 -71 -165t-191 -64q-144 0 -229 100l76 73q67 -63 146 -63q57 0 89.5 32t32.5 95q0 57 -32.5 82t-100.5 25h-90v86l179 212h-263v108h424v-99z" />
    <glyph glyph-name="uni01F0" unicode="&#x1f0;" horiz-adv-x="281" 
d="M272 806l52 -60l-140 -131h-88l-140 131l53 60l131 -89zM211 530v-477q0 -61 -14 -106t-42.5 -76t-62 -51t-83.5 -39l-47 103q58 27 82.5 59t24.5 101v486h142z" />
    <glyph glyph-name="uni01F1" unicode="&#x1f1;" horiz-adv-x="1164" 
d="M254 692q60 0 108 -8t96 -30.5t80.5 -60t52.5 -99.5t20 -145q0 -100 -28.5 -171.5t-79 -108.5t-107 -53t-125.5 -16h-198v692h181zM1128 692v-113l-310 -460h315l-16 -119h-471v111l316 465h-284v116h450zM277 584h-57v-476h60q85 0 131.5 52.5t46.5 188.5
q0 72 -13.5 120t-40 72t-56.5 33.5t-71 9.5z" />
    <glyph glyph-name="uni01F2" unicode="&#x1f2;" horiz-adv-x="1094" 
d="M254 692q60 0 108 -8t96 -30.5t80.5 -60t52.5 -99.5t20 -145q0 -100 -28.5 -171.5t-79 -108.5t-107 -53t-125.5 -16h-198v692h181zM277 584h-57v-476h60q85 0 131.5 52.5t46.5 188.5q0 72 -13.5 120t-40 72t-56.5 33.5t-71 9.5zM1068 530v-101l-249 -319h254l-14 -110
h-403v102l249 319h-228v109h391z" />
    <glyph glyph-name="uni01F3" unicode="&#x1f3;" horiz-adv-x="1053" 
d="M387 493v264l142 -16v-741h-125l-8 65q-56 -81 -152 -81q-98 0 -149.5 75.5t-51.5 205.5q0 124 59 202.5t156 78.5q74 0 129 -53zM778 110h254l-14 -110h-403v102l249 319h-228v109h391v-101zM286 90q58 0 101 64v237q-42 50 -92 50q-104 0 -104 -176q0 -175 95 -175z
" />
    <glyph glyph-name="uni01F4" unicode="&#x1f4;" horiz-adv-x="641" 
d="M434 945l54 -108l-234 -85l-36 73zM362 708q128 0 226 -83l-77 -80q-71 54 -143 54q-79 0 -127.5 -62.5t-48.5 -190.5q0 -135 37.5 -193.5t116.5 -58.5q57 0 103 25v169h-97l-15 107h255v-341q-114 -70 -243 -70q-153 0 -232 92t-79 271q0 170 92 265.5t232 95.5z" />
    <glyph glyph-name="uni01F5" unicode="&#x1f5;" horiz-adv-x="544" 
d="M346 827l56 -109l-230 -92l-40 73zM509 610l35 -109q-52 -20 -153 -20q50 -22 74 -54.5t24 -81.5q0 -79 -59 -128.5t-159 -49.5q-35 0 -62 7q-20 -13 -20 -35q0 -35 61 -35h81q89 0 143 -42.5t54 -109.5q0 -81 -69.5 -126.5t-200.5 -45.5q-138 0 -192.5 42t-54.5 127h127
q0 -39 25 -55.5t98 -16.5q69 0 96.5 17t27.5 48q0 58 -83 58h-78q-79 0 -118 29.5t-39 74.5q0 60 62 99q-94 51 -94 151q0 87 62.5 139.5t163.5 52.5q82 -2 135 14t113 50zM264 451q-40 0 -63.5 -25.5t-23.5 -69.5q0 -45 23.5 -71t64.5 -26q87 0 87 99q0 93 -88 93z" />
    <glyph glyph-name="uni01F6" unicode="&#x1f6;" horiz-adv-x="955" 
d="M878 530q29 -149 29 -280q0 -68 -22 -121t-58.5 -83.5t-80.5 -46t-92 -15.5q-89 0 -147 49t-58 143v127h-229v-303h-147v692h147v-273h229v273h147v-512q0 -90 67 -90q42 0 71.5 40.5t29.5 130.5q0 125 -26 269h140z" />
    <glyph glyph-name="uni01F7" unicode="&#x1f7;" horiz-adv-x="595" 
d="M379 708q82 0 137 -52.5t55 -140.5q0 -58 -20.5 -103.5t-61.5 -78.5t-84 -55.5t-106 -46.5l-79 -29v-202h-147v692h147v-45q61 61 159 61zM272 329q147 63 147 180q0 44 -23.5 67t-64.5 23q-62 0 -111 -44v-247z" />
    <glyph glyph-name="uni01F8" unicode="&#x1f8;" horiz-adv-x="668" 
d="M254 945l216 -120l-36 -73l-234 85zM595 692v-692h-189l-220 549q20 -155 20 -280v-269h-133v692h185l224 -550q-20 134 -20 246v304h133z" />
    <glyph glyph-name="uni01F9" unicode="&#x1f9;" horiz-adv-x="579" 
d="M440 699l-40 -73l-230 92l57 109zM366 546q70 0 109 -42.5t39 -117.5v-386h-142v362q0 43 -14.5 60.5t-43.5 17.5q-56 0 -102 -74v-366h-142v530h123l11 -67q67 83 162 83z" />
    <glyph glyph-name="Aringacute" unicode="&#x1fa;" horiz-adv-x="586" 
d="M430 1062l-234 -85l-36 73l216 120zM161 848q0 52 37 88.5t96 36.5t96 -36.5t37 -88.5q0 -53 -37 -89.5t-96 -36.5t-96 36.5t-37 89.5zM341 848q0 24 -13 37.5t-34 13.5t-34 -13.5t-13 -37.5q0 -25 12.5 -38.5t34.5 -13.5t34.5 13.5t12.5 38.5zM439 0l-39 155h-217
l-39 -155h-153l213 692h179l212 -692h-156zM211 264h161l-81 319z" />
    <glyph glyph-name="aringacute" unicode="&#x1fb;" horiz-adv-x="547" 
d="M404 918l-234 -85l-36 73l216 120zM135 704q0 52 37 88.5t96 36.5t96 -36.5t37 -88.5q0 -53 -37 -89.5t-96 -36.5t-96 36.5t-37 89.5zM315 704q0 24 -13 37.5t-34 13.5t-34 -13.5t-13 -37.5q0 -25 12.5 -38.5t34.5 -13.5t34.5 13.5t12.5 38.5zM475 147q0 -31 9 -45.5
t30 -21.5l-30 -94q-93 8 -122 78q-52 -80 -159 -80q-79 0 -125.5 45.5t-46.5 118.5q0 87 63 133t181 46h61v26q0 49 -22 68t-73 19q-56 0 -140 -28l-32 95q99 39 196 39q210 0 210 -185v-214zM242 86q60 0 94 59v101h-47q-115 0 -115 -86q0 -35 17.5 -54.5t50.5 -19.5z" />
    <glyph glyph-name="AEacute" unicode="&#x1fc;" horiz-adv-x="838" 
d="M616 837l-234 -85l-36 73l216 120zM570 108h230v-108h-352l-29 155h-229l-54 -155h-156l272 692h510l-16 -107h-279l39 -182h247v-106h-224zM227 264h171l-60 319z" />
    <glyph glyph-name="aeacute" unicode="&#x1fd;" horiz-adv-x="854" 
d="M558 718l-230 -92l-40 73l214 128zM821 277q0 -10 -3 -55h-331q7 -72 39 -102t87 -30q63 0 129 46l59 -80q-89 -72 -201 -72q-136 0 -205 92q-65 -92 -189 -92q-81 0 -128 45.5t-47 118.5q0 87 64.5 133t184.5 46h61v25q0 49 -21.5 68t-72.5 19q-58 0 -140 -28l-33 96
q99 39 196 39q111 0 161 -70q62 70 161 70q105 0 167 -71.5t62 -197.5zM681 311v6q-2 132 -96 132q-88 0 -98 -138h194zM249 86q60 0 106 72q-10 37 -12 82v3h-47q-115 0 -115 -85q0 -34 17.5 -53t50.5 -19z" />
    <glyph glyph-name="Oslashacute" unicode="&#x1fe;" horiz-adv-x="691" 
d="M478 866l-234 -85l-36 73l216 120zM507 667q146 -86 146 -321q0 -170 -82 -266t-225 -96q-31 0 -54 4l-36 -121l-113 30l40 129q-145 87 -145 320q0 169 82.5 265.5t225.5 96.5q30 0 53 -4l37 122l112 -30zM346 598q-76 0 -114.5 -60t-38.5 -192q0 -155 48 -212l139 462
q-22 2 -34 2zM346 94q76 0 114 59.5t38 192.5q0 159 -49 214l-139 -463q18 -3 36 -3z" />
    <glyph glyph-name="oslashacute" unicode="&#x1ff;" horiz-adv-x="584" 
d="M422 718l-230 -92l-40 73l214 128zM433 509q113 -68 113 -244q0 -127 -68 -204t-186 -77q-12 0 -38 2l-37 -120l-106 31l40 124q-113 69 -113 244q0 128 68 204.5t187 76.5q13 0 37 -2l39 120l106 -31zM293 440q-116 0 -116 -175q0 -105 30 -144l106 318q-6 1 -20 1z
M292 90q115 0 115 175q0 105 -30 143l-105 -317q6 -1 20 -1z" />
    <glyph glyph-name="uni0200" unicode="&#x200;" horiz-adv-x="586" 
d="M260 788l-76 -35l-118 176l99 50zM421 790l-77 -32l-109 173l100 48zM439 0l-39 155h-217l-39 -155h-153l213 692h179l212 -692h-156zM211 264h161l-81 319z" />
    <glyph glyph-name="uni0201" unicode="&#x201;" horiz-adv-x="547" 
d="M245 662l-76 -35l-118 176l99 50zM406 664l-77 -32l-109 173l100 48zM475 147q0 -31 9 -45.5t30 -21.5l-30 -94q-93 8 -122 78q-52 -80 -159 -80q-79 0 -125.5 45.5t-46.5 118.5q0 87 63 133t181 46h61v26q0 49 -22 68t-73 19q-56 0 -140 -28l-32 95q99 39 196 39
q210 0 210 -185v-214zM242 86q60 0 94 59v101h-47q-115 0 -115 -86q0 -35 17.5 -54.5t50.5 -19.5z" />
    <glyph glyph-name="uni0202" unicode="&#x202;" horiz-adv-x="586" 
d="M293 844q-67 0 -86 -78l-81 15q6 72 50.5 117.5t116.5 45.5t117 -45.5t51 -117.5l-81 -15q-21 78 -87 78zM439 0l-39 155h-217l-39 -155h-153l213 692h179l212 -692h-156zM211 264h161l-81 319z" />
    <glyph glyph-name="uni0203" unicode="&#x203;" horiz-adv-x="547" 
d="M268 682q-67 0 -86 -78l-81 15q6 72 50.5 117.5t116.5 45.5t117 -45.5t51 -117.5l-81 -15q-21 78 -87 78zM475 147q0 -31 9 -45.5t30 -21.5l-30 -94q-93 8 -122 78q-52 -80 -159 -80q-79 0 -125.5 45.5t-46.5 118.5q0 87 63 133t181 46h61v26q0 49 -22 68t-73 19
q-56 0 -140 -28l-32 95q99 39 196 39q210 0 210 -185v-214zM242 86q60 0 94 59v101h-47q-115 0 -115 -86q0 -35 17.5 -54.5t50.5 -19.5z" />
    <glyph glyph-name="uni0204" unicode="&#x204;" horiz-adv-x="528" 
d="M153 979l95 -191l-76 -35l-118 176zM323 979l86 -189l-77 -32l-109 173zM486 692l-16 -107h-250v-180h218v-106h-218v-191h268v-108h-415v692h413z" />
    <glyph glyph-name="uni0205" unicode="&#x205;" horiz-adv-x="551" 
d="M258 662l-76 -35l-118 176l99 50zM419 664l-77 -32l-109 173l100 48zM518 277q0 -10 -3 -55h-331q7 -72 39 -102t87 -30q63 0 129 46l59 -80q-89 -72 -201 -72q-125 0 -192 75t-67 203q0 124 64 204t177 80t176 -71t63 -198zM377 311v6q0 132 -95 132q-88 0 -98 -138h193
z" />
    <glyph glyph-name="uni0206" unicode="&#x206;" horiz-adv-x="528" 
d="M281 944q72 0 117 -45.5t51 -117.5l-81 -15q-21 78 -87 78q-67 0 -86 -78l-81 15q6 72 50.5 117.5t116.5 45.5zM486 692l-16 -107h-250v-180h218v-106h-218v-191h268v-108h-415v692h413z" />
    <glyph glyph-name="uni0207" unicode="&#x207;" horiz-adv-x="551" 
d="M281 682q-67 0 -86 -78l-81 15q6 72 50.5 117.5t116.5 45.5t117 -45.5t51 -117.5l-81 -15q-21 78 -87 78zM518 277q0 -10 -3 -55h-331q7 -72 39 -102t87 -30q63 0 129 46l59 -80q-89 -72 -201 -72q-125 0 -192 75t-67 203q0 124 64 204t177 80t176 -71t63 -198zM377 311
v6q0 132 -95 132q-88 0 -98 -138h193z" />
    <glyph glyph-name="uni0208" unicode="&#x208;" horiz-adv-x="294" 
d="M18 979l95 -191l-76 -35l-118 176zM188 979l86 -189l-77 -32l-109 173zM220 692v-692h-147v692h147z" />
    <glyph glyph-name="uni0209" unicode="&#x209;" horiz-adv-x="282" 
d="M22 853l95 -191l-76 -35l-118 176zM192 853l86 -189l-77 -32l-109 173zM212 530v-530h-142v530h142z" />
    <glyph glyph-name="uni020A" unicode="&#x20a;" horiz-adv-x="294" 
d="M146 944q72 0 117 -45.5t51 -117.5l-81 -15q-21 78 -87 78q-67 0 -86 -78l-81 15q6 72 50.5 117.5t116.5 45.5zM220 692v-692h-147v692h147z" />
    <glyph glyph-name="uni020B" unicode="&#x20b;" horiz-adv-x="282" 
d="M140 782q72 0 117 -45.5t51 -117.5l-81 -15q-21 78 -87 78q-67 0 -86 -78l-81 15q6 72 50.5 117.5t116.5 45.5zM212 530v-530h-142v530h142z" />
    <glyph glyph-name="uni020C" unicode="&#x20c;" horiz-adv-x="691" 
d="M217 979l95 -191l-76 -35l-118 176zM387 979l86 -189l-77 -32l-109 173zM346 708q144 0 225.5 -94.5t81.5 -267.5q0 -170 -82 -266t-225 -96q-144 0 -226 95t-82 267q0 169 82.5 265.5t225.5 96.5zM346 598q-76 0 -114.5 -60t-38.5 -192q0 -252 153 -252q76 0 114 59.5
t38 192.5t-38 192.5t-114 59.5z" />
    <glyph glyph-name="uni020D" unicode="&#x20d;" horiz-adv-x="584" 
d="M173 853l95 -191l-76 -35l-118 176zM343 853l86 -189l-77 -32l-109 173zM293 546q119 0 186 -74.5t67 -206.5q0 -127 -68 -204t-186 -77q-119 0 -186.5 74.5t-67.5 206.5q0 128 68 204.5t187 76.5zM293 440q-107 0 -107 -175t106 -175t106 175t-105 175z" />
    <glyph glyph-name="uni020E" unicode="&#x20e;" horiz-adv-x="691" 
d="M345 944q72 0 117 -45.5t51 -117.5l-81 -15q-21 78 -87 78q-67 0 -86 -78l-81 15q6 72 50.5 117.5t116.5 45.5zM346 708q144 0 225.5 -94.5t81.5 -267.5q0 -170 -82 -266t-225 -96q-144 0 -226 95t-82 267q0 169 82.5 265.5t225.5 96.5zM346 598q-76 0 -114.5 -60
t-38.5 -192q0 -252 153 -252q76 0 114 59.5t38 192.5t-38 192.5t-114 59.5z" />
    <glyph glyph-name="uni020F" unicode="&#x20f;" horiz-adv-x="584" 
d="M291 782q72 0 117 -45.5t51 -117.5l-81 -15q-21 78 -87 78q-67 0 -86 -78l-81 15q6 72 50.5 117.5t116.5 45.5zM293 546q119 0 186 -74.5t67 -206.5q0 -127 -68 -204t-186 -77q-119 0 -186.5 74.5t-67.5 206.5q0 128 68 204.5t187 76.5zM293 440q-107 0 -107 -175
t106 -175t106 175t-105 175z" />
    <glyph glyph-name="uni0210" unicode="&#x210;" horiz-adv-x="614" 
d="M266 788l-76 -35l-118 176l99 50zM427 790l-77 -32l-109 173l100 48zM443 0l-148 271h-75v-271h-147v692h216q279 0 279 -207q0 -68 -33.5 -112t-103.5 -75l179 -298h-167zM220 587v-212h77q119 0 119 110q0 53 -31.5 77.5t-98.5 24.5h-66z" />
    <glyph glyph-name="uni0211" unicode="&#x211;" horiz-adv-x="397" 
d="M211 662l-76 -35l-118 176l99 50zM372 664l-77 -32l-109 173l100 48zM344 545q24 0 53 -8l-24 -137q-28 7 -47 7q-47 0 -73 -33t-41 -100v-274h-142v530h123l13 -103q19 56 55.5 87t82.5 31z" />
    <glyph glyph-name="uni0212" unicode="&#x212;" horiz-adv-x="614" 
d="M299 844q-67 0 -86 -78l-81 15q6 72 50.5 117.5t116.5 45.5t117 -45.5t51 -117.5l-81 -15q-21 78 -87 78zM443 0l-148 271h-75v-271h-147v692h216q279 0 279 -207q0 -68 -33.5 -112t-103.5 -75l179 -298h-167zM220 587v-212h77q119 0 119 110q0 53 -31.5 77.5t-98.5 24.5
h-66z" />
    <glyph glyph-name="uni0213" unicode="&#x213;" horiz-adv-x="397" 
d="M234 682q-67 0 -86 -78l-81 15q6 72 50.5 117.5t116.5 45.5t117 -45.5t51 -117.5l-81 -15q-21 78 -87 78zM206 427q19 56 55.5 87t82.5 31q24 0 53 -8l-24 -137q-28 7 -47 7q-47 0 -73 -33t-41 -100v-274h-142v530h123z" />
    <glyph glyph-name="uni0214" unicode="&#x214;" horiz-adv-x="654" 
d="M198 979l95 -191l-76 -35l-118 176zM368 979l86 -189l-77 -32l-109 173zM590 692v-464q0 -109 -68.5 -176.5t-195.5 -67.5q-128 0 -195.5 66.5t-67.5 177.5v464h147v-457q0 -139 116 -139q117 0 117 139v457h147z" />
    <glyph glyph-name="uni0215" unicode="&#x215;" horiz-adv-x="574" 
d="M166 853l95 -191l-76 -35l-118 176zM336 853l86 -189l-77 -32l-109 173zM504 530v-530h-123l-7 71q-56 -87 -161 -87q-72 0 -110 43.5t-38 121.5v381h142v-363q0 -42 14 -59.5t44 -17.5q57 0 97 69v371h142z" />
    <glyph glyph-name="uni0216" unicode="&#x216;" horiz-adv-x="654" 
d="M326 944q72 0 117 -45.5t51 -117.5l-81 -15q-21 78 -87 78q-67 0 -86 -78l-81 15q6 72 50.5 117.5t116.5 45.5zM590 692v-464q0 -109 -68.5 -176.5t-195.5 -67.5q-128 0 -195.5 66.5t-67.5 177.5v464h147v-457q0 -139 116 -139q117 0 117 139v457h147z" />
    <glyph glyph-name="uni0217" unicode="&#x217;" horiz-adv-x="574" 
d="M284 782q72 0 117 -45.5t51 -117.5l-81 -15q-21 78 -87 78q-67 0 -86 -78l-81 15q6 72 50.5 117.5t116.5 45.5zM504 530v-530h-123l-7 71q-56 -87 -161 -87q-72 0 -110 43.5t-38 121.5v381h142v-363q0 -42 14 -59.5t44 -17.5q57 0 97 69v371h142z" />
    <glyph glyph-name="Scommaaccent" unicode="&#x218;" horiz-adv-x="565" 
d="M284 708q140 0 233 -87l-70 -81q-71 58 -153 58q-46 0 -73.5 -19.5t-27.5 -55.5t27.5 -56.5t111.5 -46.5q103 -33 154 -81.5t51 -138.5q0 -97 -72 -156.5t-196 -59.5q-157 0 -256 97l75 83q82 -69 177 -69q54 0 86.5 25t32.5 70q0 42 -27 64.5t-105 46.5
q-113 35 -161.5 84t-48.5 128q0 88 68 141.5t174 53.5zM281 -70q31 0 52 -20.5t21 -51.5q0 -28 -26 -83l-46 -93h-72l27 115q-30 25 -30 61q0 30 21 51t53 21z" />
    <glyph glyph-name="scommaaccent" unicode="&#x219;" horiz-adv-x="479" 
d="M246 546q112 0 192 -64l-54 -81q-67 42 -132 42q-35 0 -54 -13t-19 -35q0 -24 21.5 -38t89.5 -34q84 -23 125 -61.5t41 -105.5q0 -80 -65.5 -126t-163.5 -46q-132 0 -216 77l70 78q67 -52 142 -52q40 0 63.5 15.5t23.5 42.5q0 30 -22 45t-95 35q-157 44 -157 163
q0 69 57.5 113.5t152.5 44.5zM242 -70q31 0 52 -20.5t21 -51.5q0 -28 -26 -83l-46 -93h-72l27 115q-30 25 -30 61q0 30 21 51t53 21z" />
    <glyph glyph-name="uni021A" unicode="&#x21a;" horiz-adv-x="534" 
d="M532 692l-16 -115h-175v-577h-147v577h-184v115h522zM269 -70q31 0 52 -20.5t21 -51.5q0 -28 -26 -83l-46 -93h-72l27 115q-30 25 -30 61q0 30 21 51t53 21z" />
    <glyph glyph-name="uni021B" unicode="&#x21b;" horiz-adv-x="380" 
d="M387 25q-59 -41 -138 -41q-166 2 -166 182v264h-79v100h79v116l142 17v-133h122l-14 -100h-108v-261q0 -38 13 -55t40 -17t60 18zM236 -70q31 0 52 -20.5t21 -51.5q0 -28 -26 -83l-46 -93h-72l27 115q-30 25 -30 61q0 30 21 51t53 21z" />
    <glyph glyph-name="uni021C" unicode="&#x21c;" horiz-adv-x="516" 
d="M234 708q107 0 168.5 -52t61.5 -134q0 -132 -150 -164q171 -18 171 -163q0 -106 -101 -186t-316 -119l-12 111q158 38 216.5 85.5t58.5 114.5q0 100 -131 100h-71l17 108h56q52 0 81 25.5t29 72.5q0 92 -97 92q-72 0 -145 -58l-69 77q98 90 233 90z" />
    <glyph glyph-name="uni021D" unicode="&#x21d;" horiz-adv-x="480" 
d="M212 546q87 0 145.5 -40t58.5 -111q0 -94 -114 -122q67 -4 103.5 -34t36.5 -83q0 -88 -99 -156.5t-282 -105.5l-15 95q132 40 190 78.5t58 90.5q0 58 -76 58h-96l8 95h53q89 0 89 70q0 65 -79 65q-62 0 -122 -37l-65 76q85 61 206 61z" />
    <glyph glyph-name="uni021E" unicode="&#x21e;" horiz-adv-x="669" 
d="M467 935l52 -60l-140 -124h-88l-140 124l53 60l131 -83zM449 0v303h-229v-303h-147v692h147v-273h229v273h147v-692h-147z" />
    <glyph glyph-name="uni021F" unicode="&#x21f;" horiz-adv-x="579" 
d="M333 800h-88l-140 124l53 60l131 -83l132 83l52 -60zM366 546q69 0 108.5 -42.5t39.5 -117.5v-386h-142v362q0 43 -15 60.5t-43 17.5q-56 0 -102 -73v-367h-142v741l142 15v-286q65 76 154 76z" />
    <glyph glyph-name="uni0220" unicode="&#x220;" horiz-adv-x="658" 
d="M410 708q89 0 135 -51.5t46 -135.5v-729h-147v704q0 101 -82 101q-42 0 -73.5 -18t-68.5 -57v-522h-147v692h129l11 -71q85 87 197 87z" />
    <glyph glyph-name="uni0221" unicode="&#x221;" horiz-adv-x="776" 
d="M669 240q51 0 84.5 -30t33.5 -81q0 -70 -52 -107.5t-135 -37.5q-29 0 -52 4l-32 -70l-74 29l32 67q-44 26 -65 69q-61 -99 -165 -99q-98 0 -149.5 75.5t-51.5 205.5q0 125 58.5 203t158.5 78q72 0 127 -53v264l142 -16v-563q0 -28 4 -44q25 55 56.5 80.5t79.5 25.5z
M287 90q58 0 101 66q-1 8 -1 27v208q-42 50 -91 50q-105 0 -105 -176q0 -95 24.5 -135t71.5 -40zM618 89q66 0 66 41q0 29 -29 29q-18 0 -31.5 -14.5t-31.5 -54.5q8 -1 26 -1z" />
    <glyph glyph-name="uni0222" unicode="&#x222;" horiz-adv-x="651" 
d="M481 398q132 -50 132 -182q0 -96 -78.5 -164t-208.5 -68q-131 0 -209.5 66.5t-78.5 164.5q0 128 131 181q-89 48 -89 154v142h148v-146q0 -51 22.5 -77.5t75.5 -26.5q99 0 99 104v146h147v-142q0 -101 -91 -152zM326 94q132 0 132 123q0 56 -33.5 87.5t-98.5 31.5
t-99 -31.5t-34 -88.5q0 -58 34 -90t99 -32z" />
    <glyph glyph-name="uni0223" unicode="&#x223;" horiz-adv-x="578" 
d="M419 415q121 -47 121 -192q0 -102 -67 -170.5t-184 -68.5t-184 67t-67 171q0 142 119 191q-81 43 -81 140v188h140v-207q0 -80 74 -80q73 0 73 80v207h140v-188q0 -93 -84 -138zM289 90q54 0 79 32.5t25 101.5q0 134 -104 134t-104 -135q0 -133 104 -133z" />
    <glyph glyph-name="uni0224" unicode="&#x224;" horiz-adv-x="534" 
d="M503 692v-113l-310 -460h307v-157q0 -89 -50.5 -135.5t-137.5 -46.5q-80 0 -135 42l49 89q36 -22 74 -22q59 0 59 64v47h-338v111l316 465h-284v116h450z" />
    <glyph glyph-name="uni0225" unicode="&#x225;" horiz-adv-x="449" 
d="M428 530v-101l-249 -319h248v-148q0 -89 -50 -135.5t-136 -46.5q-80 0 -135 42l49 85q39 -21 75 -21q61 0 61 64v50h-275v102l249 319h-228v109h391z" />
    <glyph glyph-name="uni0226" unicode="&#x226;" horiz-adv-x="586" 
d="M293 763q-38 0 -62 23.5t-24 59.5t24 59.5t62 23.5t62.5 -23.5t24.5 -59.5t-24.5 -59.5t-62.5 -23.5zM439 0l-39 155h-217l-39 -155h-153l213 692h179l212 -692h-156zM211 264h161l-81 319z" />
    <glyph glyph-name="uni0227" unicode="&#x227;" horiz-adv-x="547" 
d="M268 637q-38 0 -62 23.5t-24 59.5t24 59.5t62 23.5t62.5 -23.5t24.5 -59.5t-24.5 -59.5t-62.5 -23.5zM475 147q0 -31 9 -45.5t30 -21.5l-30 -94q-93 8 -122 78q-52 -80 -159 -80q-79 0 -125.5 45.5t-46.5 118.5q0 87 63 133t181 46h61v26q0 49 -22 68t-73 19
q-56 0 -140 -28l-32 95q99 39 196 39q210 0 210 -185v-214zM242 86q60 0 94 59v101h-47q-115 0 -115 -86q0 -35 17.5 -54.5t50.5 -19.5z" />
    <glyph glyph-name="uni0228" unicode="&#x228;" horiz-adv-x="528" 
d="M488 0h-168v-50q51 -5 76 -30.5t25 -65.5q0 -50 -39.5 -80.5t-103.5 -30.5q-66 0 -107 29l33 68q31 -17 64 -17q48 0 48 32q0 36 -92 36l14 109h-165v692h413l-16 -107h-250v-180h218v-106h-218v-191h268v-108z" />
    <glyph glyph-name="uni0229" unicode="&#x229;" horiz-adv-x="551" 
d="M518 277q0 -10 -3 -55h-331q7 -72 39 -102t87 -30q63 0 129 46l59 -80q-74 -60 -166 -70v-36q51 -5 76 -30.5t25 -65.5q0 -50 -39.5 -80.5t-103.5 -30.5q-66 0 -107 29l33 68q31 -17 64 -17q48 0 48 32q0 36 -92 36l12 96q-102 15 -156 88t-54 187q0 124 64 204t177 80
t176 -71t63 -198zM377 311v6q0 132 -95 132q-88 0 -98 -138h193z" />
    <glyph glyph-name="uni022A" unicode="&#x22a;" horiz-adv-x="691" 
d="M498 931h-298v100h298v-100zM232 893q32 0 53.5 -21.5t21.5 -52.5t-21.5 -52.5t-53.5 -21.5q-31 0 -53 21.5t-22 52.5t22 52.5t53 21.5zM458 893q32 0 54 -21.5t22 -52.5t-22 -52.5t-54 -21.5q-31 0 -52.5 21.5t-21.5 52.5t21.5 52.5t52.5 21.5zM346 708
q144 0 225.5 -94.5t81.5 -267.5q0 -170 -82 -266t-225 -96q-144 0 -226 95t-82 267q0 169 82.5 265.5t225.5 96.5zM346 598q-76 0 -114.5 -60t-38.5 -192q0 -252 153 -252q76 0 114 59.5t38 192.5t-38 192.5t-114 59.5z" />
    <glyph glyph-name="uni022B" unicode="&#x22b;" horiz-adv-x="584" 
d="M441 799h-298v100h298v-100zM178 755q32 0 53.5 -21.5t21.5 -52.5t-21.5 -52.5t-53.5 -21.5q-31 0 -53 21.5t-22 52.5t22 52.5t53 21.5zM404 755q32 0 54 -21.5t22 -52.5t-22 -52.5t-54 -21.5q-31 0 -52.5 21.5t-21.5 52.5t21.5 52.5t52.5 21.5zM293 546q119 0 186 -74.5
t67 -206.5q0 -127 -68 -204t-186 -77q-119 0 -186.5 74.5t-67.5 206.5q0 128 68 204.5t187 76.5zM293 440q-107 0 -107 -175t106 -175t106 175t-105 175z" />
    <glyph glyph-name="uni022C" unicode="&#x22c;" horiz-adv-x="691" 
d="M495 935h-298v100h298v-100zM404 756q-31 0 -66 23t-49 23q-28 0 -53 -45l-73 36q20 49 52 80t72 31q33 0 67.5 -23t48.5 -23q27 0 53 44l73 -36q-44 -110 -125 -110zM346 708q144 0 225.5 -94.5t81.5 -267.5q0 -170 -82 -266t-225 -96q-144 0 -226 95t-82 267
q0 169 82.5 265.5t225.5 96.5zM346 598q-76 0 -114.5 -60t-38.5 -192q0 -252 153 -252q76 0 114 59.5t38 192.5t-38 192.5t-114 59.5z" />
    <glyph glyph-name="uni022D" unicode="&#x22d;" horiz-adv-x="584" 
d="M441 826h-298v100h298v-100zM350 594q-31 0 -66 23t-49 23q-28 0 -53 -45l-73 36q20 49 52 80t72 31q33 0 67.5 -23t48.5 -23q27 0 53 44l73 -36q-44 -110 -125 -110zM293 546q119 0 186 -74.5t67 -206.5q0 -127 -68 -204t-186 -77q-119 0 -186.5 74.5t-67.5 206.5
q0 128 68 204.5t187 76.5zM293 440q-107 0 -107 -175t106 -175t106 175t-105 175z" />
    <glyph glyph-name="uni022E" unicode="&#x22e;" horiz-adv-x="691" 
d="M345 929q38 0 62.5 -23.5t24.5 -59.5t-24.5 -59.5t-62.5 -23.5t-62 23.5t-24 59.5t24 59.5t62 23.5zM346 708q144 0 225.5 -94.5t81.5 -267.5q0 -170 -82 -266t-225 -96q-144 0 -226 95t-82 267q0 169 82.5 265.5t225.5 96.5zM346 598q-76 0 -114.5 -60t-38.5 -192
q0 -252 153 -252q76 0 114 59.5t38 192.5t-38 192.5t-114 59.5z" />
    <glyph glyph-name="uni022F" unicode="&#x22f;" horiz-adv-x="584" 
d="M291 803q38 0 62.5 -23.5t24.5 -59.5t-24.5 -59.5t-62.5 -23.5t-62 23.5t-24 59.5t24 59.5t62 23.5zM293 546q119 0 186 -74.5t67 -206.5q0 -127 -68 -204t-186 -77q-119 0 -186.5 74.5t-67.5 206.5q0 128 68 204.5t187 76.5zM293 440q-107 0 -107 -175t106 -175t106 175
t-105 175z" />
    <glyph glyph-name="uni0230" unicode="&#x230;" horiz-adv-x="691" 
d="M496 932h-298v100h298v-100zM345 903q38 0 62.5 -23.5t24.5 -59.5t-24.5 -59.5t-62.5 -23.5t-62 23.5t-24 59.5t24 59.5t62 23.5zM346 708q144 0 225.5 -94.5t81.5 -267.5q0 -170 -82 -266t-225 -96q-144 0 -226 95t-82 267q0 169 82.5 265.5t225.5 96.5zM346 598
q-76 0 -114.5 -60t-38.5 -192q0 -252 153 -252q76 0 114 59.5t38 192.5t-38 192.5t-114 59.5z" />
    <glyph glyph-name="uni0231" unicode="&#x231;" horiz-adv-x="584" 
d="M441 795h-298v100h298v-100zM291 762q38 0 62.5 -23.5t24.5 -59.5t-24.5 -59.5t-62.5 -23.5t-62 23.5t-24 59.5t24 59.5t62 23.5zM293 546q119 0 186 -74.5t67 -206.5q0 -127 -68 -204t-186 -77q-119 0 -186.5 74.5t-67.5 206.5q0 128 68 204.5t187 76.5zM293 440
q-107 0 -107 -175t106 -175t106 175t-105 175z" />
    <glyph glyph-name="uni0232" unicode="&#x232;" horiz-adv-x="583" 
d="M441 784h-298v100h298v-100zM587 692l-222 -431v-261h-147v260l-222 432h161l138 -314l137 314h155z" />
    <glyph glyph-name="uni0233" unicode="&#x233;" horiz-adv-x="512" 
d="M405 658h-298v100h298v-100zM514 530l-171 -531q-32 -101 -100.5 -156t-185.5 -63l-15 102q76 10 111.5 36t58.5 82h-49l-165 530h151l106 -438l112 438h147z" />
    <glyph glyph-name="uni0234" unicode="&#x234;" horiz-adv-x="454" 
d="M346 240q52 0 85 -30t33 -81q0 -70 -51.5 -107.5t-134.5 -37.5q-32 0 -53 5l-32 -71l-73 29l32 67q-87 50 -87 169v558l142 16v-579q0 -27 4 -42q24 54 55.5 79t79.5 25zM295 89q66 0 66 41q0 29 -29 29q-18 0 -31.5 -14.5t-31.5 -54.5q8 -1 26 -1z" />
    <glyph glyph-name="uni0235" unicode="&#x235;" horiz-adv-x="761" 
d="M654 240q51 0 84.5 -30t33.5 -81q0 -70 -52 -107.5t-135 -37.5q-29 0 -52 4l-32 -70l-74 29l32 67q-87 50 -87 169v179q0 43 -14.5 60.5t-43.5 17.5q-56 0 -102 -74v-366h-142v530h123l11 -67q67 83 162 83q70 0 109 -42.5t39 -117.5v-208q0 -28 4 -44q25 55 56.5 80.5
t79.5 25.5zM603 89q66 0 66 41q0 29 -29 29q-18 0 -31.5 -14.5t-31.5 -54.5q8 -1 26 -1z" />
    <glyph glyph-name="uni0236" unicode="&#x236;" horiz-adv-x="471" 
d="M364 240q51 0 84.5 -30t33.5 -81q0 -70 -51.5 -107.5t-135.5 -37.5q-29 0 -53 4l-31 -70l-73 29l31 66q-86 48 -86 170v247h-79v100h79v116l142 17v-133h122l-14 -100h-108v-252q0 -27 4 -42q24 54 55.5 79t79.5 25zM313 89q66 0 66 41q0 29 -29 29q-18 0 -31.5 -14.5
t-31.5 -54.5q8 -1 26 -1z" />
    <glyph glyph-name="uni0237" unicode="&#x237;" horiz-adv-x="281" 
d="M211 530v-477q0 -61 -14 -106t-42.5 -76t-62 -51t-83.5 -39l-47 103q58 27 82.5 59t24.5 101v486h142z" />
    <glyph glyph-name="uni0238" unicode="&#x238;" horiz-adv-x="874" 
d="M648 546q85 0 134 -74.5t49 -206.5q0 -124 -55.5 -202.5t-145.5 -78.5q-80 0 -128 79l-9 -63h-109l-9 64q-57 -80 -141 -80q-91 0 -141 76t-50 205q0 124 55.5 202.5t145.5 78.5q75 0 123 -66v261l142 16v-285q53 74 139 74zM277 90q49 0 90 64v230q-39 57 -86 57
q-41 0 -65.5 -43.5t-24.5 -132.5q0 -175 86 -175zM595 89q38 0 63 43t25 133q0 176 -83 176q-50 0 -91 -62v-222q37 -68 86 -68z" />
    <glyph glyph-name="uni0239" unicode="&#x239;" horiz-adv-x="874" 
d="M644 546q92 0 139.5 -74t47.5 -206q0 -123 -54.5 -202.5t-142.5 -79.5q-78 0 -125 69v-257l-142 -16v272q-53 -68 -134 -68q-90 0 -140 76t-50 205q0 124 57 202.5t149 78.5q78 0 129 -77l7 61h107l8 -64q58 80 144 80zM276 90q50 0 91 64v223q-37 64 -86 64
q-41 0 -65.5 -43.5t-24.5 -132.5q0 -175 85 -175zM592 90q41 0 66 43t25 132q0 176 -81 176q-51 0 -93 -65v-224q33 -62 83 -62z" />
    <glyph glyph-name="uni023A" unicode="&#x23a;" horiz-adv-x="586" 
d="M450 0l-41 155h-120l-61 -228l-55 13l57 215h-57l-41 -155h-141l213 692h169l16 62l55 -13l-35 -133l186 -608h-145zM200 257h57l62 234l-28 106zM316 257h66l-34 124z" />
    <glyph glyph-name="uni023B" unicode="&#x23b;" horiz-adv-x="571" 
d="M493 156l68 -85q-85 -87 -212 -87q-38 0 -76 8l-17 -65l-55 13l18 69q-85 36 -133 122.5t-48 215.5q0 170 86.5 265.5t221.5 95.5q34 0 58 -4l13 50l55 -13l-14 -51q48 -18 95 -57l-73 -85q-25 20 -51 32l-125 -472q26 -8 51 -8q66 0 138 56zM193 347q0 -145 61 -208
l121 457q-7 1 -21 1q-74 0 -117.5 -60.5t-43.5 -189.5z" />
    <glyph glyph-name="uni023C" unicode="&#x23c;" horiz-adv-x="478" 
d="M300 98q47 0 105 37l62 -89q-76 -62 -174 -62q-29 0 -52 4l-16 -61l-53 13l17 63q-72 28 -111.5 95t-39.5 163q0 127 69 206t184 79q23 0 44 -3l15 56l52 -13l-15 -56q42 -16 80 -48l-62 -84q-25 18 -46 27l-87 -324q14 -3 28 -3zM188 262q0 -93 35 -133l83 307h-5
q-113 0 -113 -174z" />
    <glyph glyph-name="uni023D" unicode="&#x23d;" horiz-adv-x="524" 
d="M234 118h274l-16 -118h-405v307h-79v112h79v273h147v-273h84v-112h-84v-189z" />
    <glyph glyph-name="uni023E" unicode="&#x23e;" horiz-adv-x="534" 
d="M516 582h-90l-93 -209v-373h-132v79l-68 -152l-48 22l116 260v373h-191v110h407l29 65l49 -22l-19 -43h56zM333 504l35 78h-35v-78z" />
    <glyph glyph-name="uni023F" unicode="&#x23f;" horiz-adv-x="481" 
d="M370 -113q26 0 53 11l32 -87q-41 -30 -103 -30q-44 0 -77.5 17t-59 47t-48.5 63t-59 73t-77 68l-18 12l60 78q78 -52 153 -52q84 0 84 57q0 31 -21.5 46t-95.5 35q-157 44 -157 163q0 69 57.5 113.5t152.5 44.5q112 0 192 -64l-54 -81q-67 42 -132 42q-35 0 -54 -13
t-19 -35q0 -24 21.5 -38t89.5 -34q84 -23 125 -61.5t41 -105.5q0 -80 -64.5 -126t-155.5 -46h-2q21 -14 40.5 -34t30.5 -32.5t27.5 -21.5t37.5 -9z" />
    <glyph glyph-name="uni0240" unicode="&#x240;" horiz-adv-x="430" 
d="M377 -219q-50 0 -86 21t-60 51.5t-48.5 61.5t-66.5 55.5t-100 29.5v102l249 319h-228v109h391v-101l-279 -350q41 -14 73.5 -39t52 -50.5t36.5 -49t37 -38.5t45 -15q26 0 55 11l32 -87q-41 -30 -103 -30z" />
    <glyph glyph-name="uni0241" unicode="&#x241;" horiz-adv-x="499" 
d="M148 0v327l59 17q62 17 90.5 49t28.5 92q0 53 -28 83.5t-78 30.5q-72 0 -142 -58l-73 77q99 90 232 90q111 0 176.5 -59.5t65.5 -156.5q0 -85 -41.5 -131.5t-118.5 -74.5l-24 -9v-277h-147z" />
    <glyph glyph-name="uni0242" unicode="&#x242;" horiz-adv-x="458" 
d="M113 0v201l57 16q109 30 109 120q0 46 -25 73.5t-69 27.5q-57 0 -117 -48l-70 74q85 82 201 82q103 0 165.5 -58t62.5 -149q0 -136 -144 -180l-28 -8v-151h-142z" />
    <glyph glyph-name="uni0243" unicode="&#x243;" horiz-adv-x="628" 
d="M441 366q157 -30 157 -165q0 -109 -78 -155t-217 -46h-216v174h-72v77h72v441h189q292 0 292 -177q0 -61 -36.5 -98.5t-90.5 -50.5zM290 586h-56v-175h72q112 0 112 91q0 46 -31 65t-97 19zM304 109q69 0 105 20.5t36 77.5q0 104 -128 104h-83v-60h126v-77h-126v-65h70z
" />
    <glyph glyph-name="uni0244" unicode="&#x244;" horiz-adv-x="683" 
d="M665 588v-86h-60v-274q0 -109 -68.5 -176.5t-195.5 -67.5q-128 0 -195.5 66.5t-67.5 177.5v274h-60v86h60v104h147v-104h233v104h147v-104h60zM458 235v267h-233v-267q0 -139 116 -139q117 0 117 139z" />
    <glyph glyph-name="uni0245" unicode="&#x245;" horiz-adv-x="586" 
d="M383 692l212 -692h-156l-147 583l-148 -583h-153l213 692h179z" />
    <glyph glyph-name="uni0246" unicode="&#x246;" horiz-adv-x="528" 
d="M488 108v-108h-236l-19 -73l-55 13l16 60h-121v692h305l16 62l54 -13l-13 -49h51l-16 -107h-63l-48 -180h79v-106h-107l-50 -191h207zM220 585v-180h81l48 180h-129zM220 108h3l50 191h-53v-191z" />
    <glyph glyph-name="uni0247" unicode="&#x247;" horiz-adv-x="551" 
d="M515 224h-226l-34 -127q22 -7 55 -7q63 0 129 46l59 -80q-89 -72 -201 -72q-40 0 -71 7l-17 -64l-50 13l18 67q-68 30 -103.5 96.5t-35.5 158.5q0 124 64 204t177 80q23 0 42 -3l15 56l50 -13l-15 -55q71 -26 109 -91t38 -163q0 -5 -3 -53zM282 451q-50 0 -76 -33.5
t-32 -109.5h84l38 142q-4 1 -14 1zM389 315q0 89 -44 119l-34 -126h78v7zM209 126l26 98h-60q6 -65 34 -98z" />
    <glyph glyph-name="uni0248" unicode="&#x248;" horiz-adv-x="331" 
d="M326 399v-112h-81v-184q0 -115 -55.5 -173.5t-157.5 -91.5l-39 105q64 25 84.5 61t20.5 104v179h-82v112h82v293h147v-293h81z" />
    <glyph glyph-name="uni0249" unicode="&#x249;" horiz-adv-x="327" 
d="M164 637q-38 0 -62 23.5t-24 59.5t24 59.5t62 23.5t62.5 -23.5t24.5 -59.5t-24.5 -59.5t-62.5 -23.5zM319 307v-101h-83v-153q0 -61 -14 -106t-42.5 -76t-62 -51t-83.5 -39l-47 103q58 27 82.5 59t24.5 101v162h-85v101h85v223h142v-223h83z" />
    <glyph glyph-name="uni024A" unicode="&#x24a;" horiz-adv-x="672" 
d="M725 -90l50 -88q-55 -42 -135 -42q-88 0 -138.5 46.5t-50.5 135.5v78q-58 -56 -141 -56q-121 0 -196.5 92t-75.5 257q0 175 77 275t199 100q86 0 147 -58l7 42h131v-739q0 -64 56 -64q33 0 70 21zM338 92q65 0 113 46v416q-47 44 -110 44q-148 0 -148 -265
q0 -241 145 -241z" />
    <glyph glyph-name="uni024B" unicode="&#x24b;" horiz-adv-x="599" 
d="M586 -102l29 -100q-38 -18 -90 -18q-65 0 -101.5 37.5t-36.5 106.5v130q-55 -70 -143 -70q-98 0 -149.5 75.5t-51.5 205.5q0 125 58.5 203t158.5 78q79 0 138 -65l8 49h123v-602q0 -35 29 -35q15 0 28 5zM287 90q59 0 100 64v237q-42 50 -91 50q-105 0 -105 -176
q0 -95 24.5 -135t71.5 -40z" />
    <glyph glyph-name="uni024C" unicode="&#x24c;" horiz-adv-x="627" 
d="M623 0h-167l-148 271h-75v-271h-147v271h-71v104h71v317h216q279 0 279 -207q0 -68 -33.5 -112t-103.5 -75zM233 375h77q119 0 119 110q0 53 -31.5 77.5t-98.5 24.5h-66v-212z" />
    <glyph glyph-name="uni024D" unicode="&#x24d;" horiz-adv-x="418" 
d="M365 545q24 0 53 -8l-24 -137q-28 7 -47 7q-45 0 -70.5 -30t-40.5 -92h82v-101h-85v-184h-142v184h-83v101h83v245h123l13 -103q19 56 55.5 87t82.5 31z" />
    <glyph glyph-name="uni024E" unicode="&#x24e;" horiz-adv-x="583" 
d="M547 612h41v-86h-86l-136 -265v-261h-148v260l-137 266h-83v86h39l-41 80h157l35 -80h215l35 80h150zM295 369l70 157h-139z" />
    <glyph glyph-name="uni024F" unicode="&#x24f;" horiz-adv-x="531" 
d="M524 530l-44 -137h41v-85h-68l-100 -309q-32 -101 -100.5 -156t-185.5 -63l-15 102q76 10 111.5 36t58.5 82h-49l-96 308h-68v85h42l-43 137h151l33 -137h150l35 137h147zM265 92l55 216h-107z" />
    <glyph glyph-name="uni0250" unicode="&#x250;" horiz-adv-x="547" 
d="M306 90q56 0 140 28l32 -95q-99 -39 -196 -39q-210 0 -210 185v214q0 31 -9 45.5t-30 21.5l30 94q93 -8 122 -78q52 80 159 80q79 0 125.5 -45.5t46.5 -118.5q0 -87 -63 -133t-181 -46h-61v-26q0 -49 22 -68t73 -19zM305 444q-60 0 -94 -59v-101h47q115 0 115 86
q0 35 -17.5 54.5t-50.5 19.5z" />
    <glyph glyph-name="uni0251" unicode="&#x251;" horiz-adv-x="598" 
d="M523 169q0 -36 9 -53t34 -29l-42 -103q-98 18 -126 82q-62 -82 -155 -82q-98 0 -151.5 76t-53.5 205q0 125 59 203t160 78q81 0 134 -64l8 48h124v-361zM279 90q60 0 102 65v235q-43 51 -94 51q-101 0 -101 -176q0 -175 93 -175z" />
    <glyph glyph-name="uni0252" unicode="&#x252;" horiz-adv-x="598" 
d="M355 546q98 0 151.5 -76t53.5 -205q0 -125 -59 -203t-160 -78q-81 0 -134 64l-8 -48h-124v361q0 36 -9 53t-34 29l42 103q98 -18 126 -82q62 82 155 82zM311 89q101 0 101 176q0 175 -93 175q-60 0 -102 -65v-235q43 -51 94 -51z" />
    <glyph glyph-name="uni0253" unicode="&#x253;" horiz-adv-x="596" 
d="M354 546q96 0 147.5 -74t51.5 -207q0 -125 -56.5 -203t-153.5 -78q-87 0 -139 68l-8 -52h-126v583q0 77 50.5 125.5t143.5 48.5q74 0 140 -32l-39 -94q-43 20 -86 20q-36 0 -51.5 -17t-15.5 -55v-106q52 73 142 73zM304 89q101 0 101 176q0 97 -24.5 136.5t-70.5 39.5
q-59 0 -98 -68v-227q35 -57 92 -57z" />
    <glyph glyph-name="uni0254" unicode="&#x254;" horiz-adv-x="478" 
d="M186 -16q-102 0 -175 60l64 84q51 -37 105 -38q112 0 112 175q0 91 -26.5 133t-80.5 42q-55 0 -108 -36l-61 81q72 61 177 61q116 0 181.5 -74.5t65.5 -206.5q0 -128 -67.5 -204.5t-186.5 -76.5z" />
    <glyph glyph-name="uni0255" unicode="&#x255;" horiz-adv-x="498" 
d="M362 250q55 0 90 -31.5t35 -85.5q0 -72 -52.5 -110.5t-134.5 -38.5q-41 0 -71 8l-33 -74l-73 29l34 73q-57 33 -88 95.5t-31 145.5q0 127 69 206t184 79q102 0 176 -64l-62 -85q-49 39 -104 39q-113 0 -113 -174q0 -83 26 -125q24 59 59 86t89 27zM317 89q67 0 67 47
q0 33 -34 33q-23 0 -39.5 -16t-36.5 -58q21 -6 43 -6z" />
    <glyph glyph-name="uni0256" unicode="&#x256;" horiz-adv-x="599" 
d="M659 -94l49 -84q-55 -42 -136 -42q-85 0 -135 47t-50 135v91q-55 -69 -143 -69q-98 0 -149.5 75.5t-51.5 205.5q0 125 58.5 203t158.5 78q72 0 127 -53v264l142 -16v-791q0 -64 58 -64q32 0 72 20zM287 90q59 0 100 64v237q-42 50 -91 50q-105 0 -105 -176
q0 -95 24.5 -135t71.5 -40z" />
    <glyph glyph-name="uni0257" unicode="&#x257;" horiz-adv-x="599" 
d="M566 757q75 0 130 -38l-43 -89q-37 21 -69 21q-55 0 -55 -65v-586h-125l-8 65q-56 -81 -152 -81q-98 0 -149.5 75.5t-51.5 205.5q0 125 58.5 203t158.5 78q72 0 127 -53v87q0 82 46.5 129.5t132.5 47.5zM287 90q59 0 100 64v237q-42 50 -91 50q-105 0 -105 -176
q0 -95 24.5 -135t71.5 -40z" />
    <glyph glyph-name="uni0258" unicode="&#x258;" horiz-adv-x="551" 
d="M272 546q120 0 180.5 -77t60.5 -207q0 -127 -67.5 -202.5t-191.5 -75.5q-112 0 -201 72l58 80q66 -46 135 -46q54 0 84 29.5t36 102.5h-330q-3 45 -3 55q0 126 64 197.5t175 71.5zM173 317v-6h194q-4 77 -26.5 107.5t-70.5 30.5q-95 0 -97 -132z" />
    <glyph glyph-name="uni0259" unicode="&#x259;" horiz-adv-x="555" 
d="M269 546q124 0 186 -75t62 -205q0 -126 -65 -204t-180 -78q-109 0 -174 71.5t-65 198.5q0 30 3 54h342q-9 135 -114 135q-71 0 -134 -45l-60 81q83 67 199 67zM272 86q49 0 75.5 31t30.5 102h-210v-7q1 -59 28 -92.5t76 -33.5z" />
    <glyph glyph-name="uni025A" unicode="&#x25a;" horiz-adv-x="813" 
d="M786 427l42 -81q-51 -38 -123 -38q-69 0 -108.5 33t-45.5 91v6l-57 -32q23 -61 23 -140q0 -126 -65 -204t-180 -78q-109 0 -174 71.5t-65 198.5q0 30 3 54h342q-9 135 -114 135q-71 0 -134 -45l-60 81q83 67 199 67q115 0 179 -67l97 51h121v-62q0 -58 54 -58q30 0 66 17
zM272 86q49 0 75.5 31t30.5 102h-210v-7q1 -59 28 -92.5t76 -33.5z" />
    <glyph glyph-name="uni025B" unicode="&#x25b;" horiz-adv-x="477" 
d="M263 546q113 0 192 -57l-59 -76q-58 33 -115 33q-36 0 -57 -16t-21 -46q0 -29 21.5 -46t60.5 -17h65l-15 -95h-57q-49 0 -70.5 -16.5t-21.5 -51.5q0 -33 24 -52t70 -19q64 0 131 42l61 -81q-83 -64 -210 -64q-100 0 -162 43t-62 120q0 118 140 135q-119 24 -119 118
q0 68 56 107t148 39z" />
    <glyph glyph-name="uni025C" unicode="&#x25c;" horiz-adv-x="498" 
d="M230 546q86 0 144.5 -39.5t58.5 -106.5q0 -89 -114 -117q71 -11 106 -41.5t35 -87.5q0 -83 -66.5 -126.5t-174.5 -43.5q-127 0 -213 65l68 80q66 -42 140 -42q98 0 98 73q0 66 -103 66h-80l9 95h60q91 0 91 66q0 59 -79 59q-62 0 -121 -38l-66 77q87 61 207 61z" />
    <glyph glyph-name="uni025D" unicode="&#x25d;" horiz-adv-x="746" 
d="M719 427l42 -81q-51 -38 -123 -38q-69 0 -108.5 33t-45.5 91v6l-51 -29v-9q0 -89 -114 -117q71 -11 106 -41.5t35 -87.5q0 -83 -66.5 -126.5t-174.5 -43.5q-127 0 -213 65l68 80q66 -42 140 -42q98 0 98 73q0 66 -103 66h-80l9 95h60q91 0 91 66q0 59 -79 59
q-62 0 -121 -38l-66 77q87 61 207 61q111 0 167 -58l81 42h121v-62q0 -58 54 -58q30 0 66 17z" />
    <glyph glyph-name="uni025E" unicode="&#x25e;" horiz-adv-x="572" 
d="M298 -16q-127 0 -193.5 73.5t-66.5 207.5q0 129 68.5 205t189.5 76q94 0 153 -40t59 -107q0 -87 -114 -116q70 -11 105 -41.5t35 -87.5q0 -81 -64.5 -125.5t-171.5 -44.5zM297 87q93 0 93 74q0 65 -99 65h-35l8 95h16q39 0 62.5 16.5t23.5 48.5q0 28 -19.5 44t-52.5 16
q-57 0 -84.5 -43.5t-27.5 -137.5q0 -95 26 -136.5t89 -41.5z" />
    <glyph glyph-name="uni025F" unicode="&#x25f;" horiz-adv-x="327" 
d="M319 307v-101h-83v-153q0 -61 -14 -106t-42.5 -76t-62 -51t-83.5 -39l-47 103q58 27 82.5 59t24.5 101v162h-85v101h85v223h142v-223h83z" />
    <glyph glyph-name="uni0260" unicode="&#x260;" horiz-adv-x="599" 
d="M566 757q75 0 130 -38l-43 -89q-37 21 -69 21q-55 0 -55 -65v-573q0 -233 -248 -233q-111 0 -186 49l43 89q62 -32 132 -32q63 0 90 26t27 83v78q-55 -69 -143 -69q-97 0 -149 74t-52 197q0 118 59 194.5t158 76.5q71 0 127 -53v87q0 82 46.5 129.5t132.5 47.5zM287 110
q59 0 100 64v217q-42 50 -91 50t-77 -41.5t-28 -124.5q0 -165 96 -165z" />
    <glyph glyph-name="uni0261" unicode="&#x261;" horiz-adv-x="599" 
d="M406 530h123v-517q0 -233 -248 -233q-111 0 -186 49l43 89q62 -32 132 -32q63 0 90 26t27 83v78q-55 -69 -143 -69q-97 0 -149 74t-52 197q0 118 59 194.5t158 76.5q77 0 138 -64zM287 110q59 0 100 64v217q-42 50 -91 50t-77 -41.5t-28 -124.5q0 -165 96 -165z" />
    <glyph glyph-name="uni0262" unicode="&#x262;" 
d="M306 546q114 0 200 -71l-70 -76q-60 43 -123 43q-58 0 -92.5 -44.5t-34.5 -130.5q0 -97 27.5 -138t82.5 -41q41 0 81 16v108h-76l-13 96h223v-261q-102 -61 -217 -61q-126 0 -191 71t-65 211q0 126 76.5 202t191.5 76z" />
    <glyph glyph-name="uni0263" unicode="&#x263;" horiz-adv-x="512" 
d="M514 530l-185 -452q36 -59 52 -99t16 -83q0 -54 -35 -85t-104 -31t-103.5 31t-34.5 85q0 68 68 181l-190 453h151l109 -362l109 362h147zM288 -97q0 31 -30 93q-29 -61 -29 -93t29 -32q30 0 30 32z" />
    <glyph glyph-name="uni0264" unicode="&#x264;" horiz-adv-x="551" 
d="M463 546q50 0 95 -30l-41 -81q-22 10 -40 10q-14 0 -23.5 -8.5t-21.5 -31.5l-87 -167q32 -48 45 -79t13 -67q0 -48 -32.5 -78t-95.5 -30q-62 0 -95 30t-33 78q0 32 13 63t45 84l-86 166q-12 23 -21.5 31.5t-23.5 8.5q-18 0 -40 -10l-41 81q43 30 95 30t83 -28t57 -91
l47 -107l48 107q27 64 57 91.5t83 27.5zM301 100q0 19 -26 68q-3 -5 -8 -15l-7.5 -15t-5.5 -12.5t-4 -13.5t-1 -12q0 -27 26 -27t26 27z" />
    <glyph glyph-name="uni0265" unicode="&#x265;" horiz-adv-x="579" 
d="M367 530h142v-750l-142 16v264q-64 -76 -153 -76q-70 0 -109.5 42.5t-39.5 118.5v385h142v-361q0 -79 59 -79q54 0 101 74v366z" />
    <glyph glyph-name="uni0266" unicode="&#x266;" horiz-adv-x="579" 
d="M366 546q69 0 108.5 -42.5t39.5 -117.5v-386h-142v362q0 43 -15 60.5t-43 17.5q-56 0 -102 -73v-367h-142v583q0 77 50.5 125.5t143.5 48.5q74 0 140 -32l-39 -94q-43 20 -86 20q-36 0 -51.5 -17t-15.5 -55v-109q65 76 154 76z" />
    <glyph glyph-name="uni0267" unicode="&#x267;" horiz-adv-x="579" 
d="M366 546q69 0 108.5 -42.5t39.5 -117.5v-424q0 -88 -50 -135t-135 -47q-81 0 -136 42l49 84q40 -20 72 -20q58 0 58 64v412q0 43 -15 60.5t-43 17.5q-56 0 -102 -73v-367h-142v583q0 77 50.5 125.5t143.5 48.5q74 0 140 -32l-39 -94q-43 20 -86 20q-36 0 -51.5 -17
t-15.5 -55v-109q65 76 154 76z" />
    <glyph glyph-name="uni0268" unicode="&#x268;" horiz-adv-x="326" 
d="M162 637q-38 0 -62 23.5t-24 59.5t24 59.5t62 23.5t62.5 -23.5t24.5 -59.5t-24.5 -59.5t-62.5 -23.5zM318 332v-101h-84v-231h-142v231h-84v101h84v198h142v-198h84z" />
    <glyph glyph-name="uni0269" unicode="&#x269;" horiz-adv-x="296" 
d="M202 -16q-65 0 -101 37.5t-36 106.5v402h142v-398q0 -35 29 -35q13 0 28 5l29 -100q-41 -18 -91 -18z" />
    <glyph glyph-name="uni026A" unicode="&#x26a;" horiz-adv-x="336" 
d="M318 427h-79v-323h79v-104h-300v104h79v323h-79v103h300v-103z" />
    <glyph glyph-name="uni026B" unicode="&#x26b;" horiz-adv-x="441" 
d="M301 281h-11v-149q0 -35 29 -35q16 0 28 6l29 -101q-41 -18 -91 -18q-65 0 -101 37.5t-36 106.5v212q-8 2 -13 2q-16 0 -30 -8.5t-21.5 -17.5t-18.5 -26l-77 39q59 120 155 120h5v292l142 16v-366q9 -3 19 -3q15 0 28.5 7.5t21.5 16t19 24.5l76 -38q-57 -117 -153 -117z
" />
    <glyph glyph-name="uni026C" unicode="&#x26c;" horiz-adv-x="411" 
d="M354 103l29 -101q-41 -18 -91 -18q-65 0 -101 37.5t-36 106.5v116q-78 2 -117.5 34t-39.5 88q0 52 34.5 82t87.5 30q17 0 35 -4v267l142 16v-431q29 1 72 10l12 -74q-39 -11 -84 -14v-116q0 -35 29 -35q16 0 28 6zM95 367q0 -43 60 -43v75q-12 3 -25 3q-35 0 -35 -35z
" />
    <glyph glyph-name="uni026D" unicode="&#x26d;" horiz-adv-x="282" 
d="M342 -94l49 -84q-55 -42 -136 -42q-85 0 -135 47t-50 135v779l142 16v-807q0 -64 58 -64q32 0 72 20z" />
    <glyph glyph-name="uni026E" unicode="&#x26e;" horiz-adv-x="696" 
d="M454 211q107 -5 164.5 -56t57.5 -148q0 -100 -71 -163.5t-191 -63.5q-128 0 -208 77l69 82q61 -49 131 -49q58 0 90 31.5t32 93.5q0 59 -32 84t-101 25h-89v86l179 212h-278v-290q0 -35 29 -35q16 0 28 6l29 -101q-41 -18 -91 -18q-65 0 -101 37.5t-36 106.5v613l142 16
v-227h439v-99z" />
    <glyph glyph-name="uni026F" unicode="&#x26f;" horiz-adv-x="848" 
d="M636 530h142v-530h-123l-11 66q-62 -82 -154 -82q-45 0 -78 22.5t-48 63.5q-66 -86 -159 -86q-63 0 -101.5 43t-38.5 117v386h142v-362q0 -78 52 -78q28 0 49 18t43 56v366h142v-362q0 -78 52 -78q50 0 91 74v366z" />
    <glyph glyph-name="uni0270" unicode="&#x270;" horiz-adv-x="848" 
d="M636 530h142v-750l-142 16v259q-58 -71 -146 -71q-45 0 -78 22.5t-48 63.5q-66 -86 -159 -86q-63 0 -101.5 43t-38.5 117v386h142v-362q0 -78 52 -78q28 0 49 18t43 56v366h142v-362q0 -78 52 -78q50 0 91 74v366z" />
    <glyph glyph-name="uni0271" unicode="&#x271;" horiz-adv-x="848" 
d="M643 546q63 0 101.5 -43t38.5 -117v-424q0 -89 -50.5 -135.5t-136.5 -46.5q-79 0 -134 42l49 85q39 -21 71 -21q59 0 59 64v412q0 78 -52 78q-28 0 -49 -18t-43 -56v-366h-142v362q0 78 -52 78q-50 0 -91 -74v-366h-142v530h123l11 -66q62 82 154 82q45 0 78 -22.5
t48 -63.5q66 86 159 86z" />
    <glyph glyph-name="uni0272" unicode="&#x272;" horiz-adv-x="579" 
d="M366 546q70 0 109 -42.5t39 -117.5v-386h-142v362q0 43 -14.5 60.5t-43.5 17.5q-56 0 -102 -74v-404q0 -88 -50 -135t-135 -47q-81 0 -136 42l49 84q40 -20 72 -20q58 0 58 64v580h123l11 -67q67 83 162 83z" />
    <glyph glyph-name="uni0273" unicode="&#x273;" horiz-adv-x="579" 
d="M644 -94l49 -84q-55 -42 -136 -42q-85 0 -135 47t-50 135v400q0 43 -14.5 60.5t-43.5 17.5q-56 0 -102 -74v-366h-142v530h123l11 -67q67 83 162 83q70 0 109 -42.5t39 -117.5v-436q0 -64 58 -64q32 0 72 20z" />
    <glyph glyph-name="uni0274" unicode="&#x274;" horiz-adv-x="589" 
d="M519 530v-530h-172l-171 404q21 -130 21 -239v-165h-127v530h171l172 -404q-20 118 -20 202v202h126z" />
    <glyph glyph-name="uni0275" unicode="&#x275;" horiz-adv-x="584" 
d="M293 546q119 0 186 -74.5t67 -206.5q0 -127 -68 -204t-186 -77q-119 0 -186.5 74.5t-67.5 206.5q0 128 68 204.5t187 76.5zM293 442q-96 0 -109 -131h216q-13 131 -107 131zM292 88q97 0 109 139h-218q12 -139 109 -139z" />
    <glyph glyph-name="uni0276" unicode="&#x276;" horiz-adv-x="764" 
d="M540 220q-12 -71 -56 -120h254v-100h-355q-46 -16 -91 -16q-119 0 -186.5 74.5t-67.5 206.5q0 128 68 204.5t187 76.5q47 0 94 -16h352l-15 -99h-237q39 -48 51 -113h159v-98h-157zM293 90q105 0 105 175t-105 175q-107 0 -107 -175t107 -175z" />
    <glyph glyph-name="uni0277" unicode="&#x277;" horiz-adv-x="764" 
d="M383 546q164 0 253.5 -79.5t89.5 -225.5q0 -128 -54 -192.5t-141 -64.5q-125 0 -149 118q-16 -63 -52 -90.5t-100 -27.5q-87 0 -139.5 63.5t-52.5 193.5q0 146 90 225.5t255 79.5zM510 90q76 0 76 158q0 197 -203 197q-109 0 -157 -51.5t-48 -147.5q0 -156 75 -156
q31 0 47 20t16 75v115l132 18v-133q0 -95 62 -95z" />
    <glyph glyph-name="uni0278" unicode="&#x278;" horiz-adv-x="654" 
d="M624 267q0 -120 -62.5 -186.5t-163.5 -76.5l-1 -208l-142 -16l1 224q-102 10 -163.5 75t-61.5 184q0 120 62 186.5t162 76.5v215l142 15v-230q102 -9 164.5 -74.5t62.5 -184.5zM386 99q97 12 97 168q0 154 -97 165v-333zM172 263q0 -152 95 -164v333q-49 -6 -72 -47
t-23 -122z" />
    <glyph glyph-name="uni0279" unicode="&#x279;" horiz-adv-x="397" 
d="M185 530h142v-530h-123l-13 103q-19 -56 -55.5 -87t-82.5 -31q-24 0 -53 8l24 137q28 -7 47 -7q47 0 73 33t41 100v274z" />
    <glyph glyph-name="uni027A" unicode="&#x27a;" horiz-adv-x="397" 
d="M185 757l142 -16v-741h-123l-13 103q-19 -56 -55.5 -87t-82.5 -31q-24 0 -53 8l24 137q28 -7 47 -7q47 0 73 33t41 100v501z" />
    <glyph glyph-name="uni027B" unicode="&#x27b;" horiz-adv-x="397" 
d="M457 -94l49 -84q-55 -42 -136 -42q-85 0 -135 47t-50 135v125q-20 -48 -54.5 -74.5t-76.5 -26.5q-29 0 -53 7l23 138q24 -7 48 -7q46 0 72 32.5t41 98.5v275h142v-580q0 -64 58 -64q32 0 72 20z" />
    <glyph glyph-name="uni027C" unicode="&#x27c;" horiz-adv-x="397" 
d="M344 545q24 0 53 -8l-24 -137q-28 7 -47 7q-47 0 -73 -33t-41 -100v-478l-142 -16v750h123l13 -103q19 56 55.5 87t82.5 31z" />
    <glyph glyph-name="uni027D" unicode="&#x27d;" horiz-adv-x="397" 
d="M270 -114q32 0 72 20l49 -84q-55 -42 -136 -42q-85 0 -135 47t-50 135v568h123l13 -103q19 56 55.5 87t82.5 31q24 0 53 -8l-24 -137q-28 7 -47 7q-47 0 -73 -33t-41 -100v-324q0 -64 58 -64z" />
    <glyph glyph-name="uni027E" unicode="&#x27e;" horiz-adv-x="386" 
d="M250 548q81 0 136 -42l-49 -84q-40 20 -72 20q-58 0 -58 -64v-378h-142v366q0 88 50 135t135 47z" />
    <glyph glyph-name="uni027F" unicode="&#x27f;" horiz-adv-x="386" 
d="M136 548q85 0 135 -47t50 -135v-366h-142v378q0 64 -58 64q-32 0 -72 -20l-49 84q55 42 136 42z" />
    <glyph glyph-name="uni0280" unicode="&#x280;" horiz-adv-x="529" 
d="M367 0l-110 188h-50v-188h-137v530h179q231 0 231 -172q0 -107 -96 -149l134 -209h-151zM207 436v-159h47q44 0 65 19t21 63q0 42 -23 59.5t-71 17.5h-39z" />
    <glyph glyph-name="uni0281" unicode="&#x281;" horiz-adv-x="529" 
d="M384 322q96 -39 96 -146q0 -176 -231 -176h-179v530h137v-188h50l110 188h151zM246 94q48 0 71 18.5t23 62.5q0 42 -21.5 60t-64.5 18h-47v-159h39z" />
    <glyph glyph-name="uni0282" unicode="&#x282;" horiz-adv-x="479" 
d="M240 -16q-60 0 -103 18v-52q0 -64 66 -64q38 0 79 22l50 -86q-58 -41 -138 -41q-87 0 -135 46t-48 136v98l59 67q72 -41 152 -41q41 0 64.5 15.5t23.5 41.5q0 31 -21.5 46t-95.5 35q-157 44 -157 163q0 69 57.5 113.5t152.5 44.5q112 0 192 -64l-54 -83q-65 44 -128 44
q-77 0 -77 -48q0 -24 21.5 -38t89.5 -34q84 -23 125 -61.5t41 -105.5q0 -79 -62.5 -125.5t-153.5 -46.5z" />
    <glyph glyph-name="uni0283" unicode="&#x283;" horiz-adv-x="282" 
d="M249 757q75 0 130 -38l-43 -89q-37 21 -69 21q-55 0 -55 -65v-624q0 -88 -50 -135t-135 -47q-81 0 -136 42l49 84q40 -20 72 -20q58 0 58 64v630q0 82 46.5 129.5t132.5 47.5z" />
    <glyph glyph-name="uni0284" unicode="&#x284;" horiz-adv-x="327" 
d="M235 101h82v-101h-85q-11 -89 -59.5 -136.5t-139.5 -82.5l-45 97q50 21 74.5 47t29.5 75h-85v101h86v479q0 82 46.5 129.5t132.5 47.5q75 0 130 -38l-43 -89q-37 21 -69 21q-55 0 -55 -65v-485z" />
    <glyph glyph-name="uni0285" unicode="&#x285;" horiz-adv-x="474" 
d="M432 110l49 -84q-55 -42 -136 -42q-85 0 -135 47t-50 135v209q0 65 -55 65q-32 0 -69 -21l-43 89q55 38 130 38q86 0 132.5 -47.5t46.5 -129.5v-215q0 -64 58 -64q32 0 72 20z" />
    <glyph glyph-name="uni0286" unicode="&#x286;" horiz-adv-x="330" 
d="M315 651q-55 0 -55 -65v-56l1 -511q0 -16 -1 -23q50 -14 104 -41l-27 -62q-32 14 -86 31q-34 -144 -191 -144q-68 0 -105.5 31t-37.5 84q0 61 41.5 94t113.5 33q18 0 46 -2v560q0 82 46.5 129.5t132.5 47.5q75 0 130 -38l-43 -89q-37 21 -69 21zM52 -142q33 0 48.5 21
t17.5 69q-26 2 -46 2q-67 0 -67 -50q0 -42 47 -42z" />
    <glyph glyph-name="uni0287" unicode="&#x287;" horiz-adv-x="380" 
d="M376 100v-100h-79v-116l-142 -17v133h-122l14 100h108v261q0 38 -13 55t-40 17t-60 -18l-49 90q59 41 138 41q166 -2 166 -182v-264h79z" />
    <glyph glyph-name="uni0288" unicode="&#x288;" horiz-adv-x="380" 
d="M355 -94l49 -84q-55 -42 -136 -42q-85 0 -135 47t-50 135v468h-79v100h79v116l142 17v-133h122l-14 -100h-108v-480q0 -64 58 -64q32 0 72 20z" />
    <glyph glyph-name="uni0289" unicode="&#x289;" horiz-adv-x="614" 
d="M601 393v-92h-79v-301h-123l-7 71q-56 -87 -161 -87q-72 0 -110 43.5t-38 121.5v152h-77v92h77v137h142v-137h155v137h142v-137h79zM380 159v142h-155v-134q0 -42 14 -59.5t44 -17.5q57 0 97 69z" />
    <glyph glyph-name="uni028A" unicode="&#x28a;" horiz-adv-x="583" 
d="M291 -16q-116 0 -184.5 69.5t-68.5 174.5q0 128 100 202h-85v100h193v-94q-61 -74 -61 -195q0 -154 106 -154q108 0 108 154q0 121 -62 195v94h193v-100h-84q99 -75 99 -202q0 -105 -68.5 -174.5t-185.5 -69.5z" />
    <glyph glyph-name="uni028B" unicode="&#x28b;" horiz-adv-x="571" 
d="M267 -16q-88 0 -145 48t-57 139v359h142v-350q0 -90 69 -90q101 0 101 160v153q0 35 -28 35q-14 0 -26 -5l-24 97q37 16 82 16q65 0 101.5 -37.5t36.5 -111.5v-142q0 -138 -71 -204.5t-181 -66.5z" />
    <glyph glyph-name="uni028C" unicode="&#x28c;" horiz-adv-x="508" 
d="M-2 0l170 530h169l173 -530h-154l-105 419l-107 -419h-146z" />
    <glyph glyph-name="uni028D" unicode="&#x28d;" horiz-adv-x="741" 
d="M8 0l113 530h173l76 -403l76 403h171l116 -530h-143l-65 425l-88 -425h-142l-79 425l-72 -425h-136z" />
    <glyph glyph-name="uni028E" unicode="&#x28e;" horiz-adv-x="512" 
d="M-2 0l171 531q33 107 100.5 162.5t185.5 63.5l13 -98q-79 -10 -114.5 -38.5t-56.5 -90.5h51l166 -530h-151l-106 438l-112 -438h-147z" />
    <glyph glyph-name="uni028F" unicode="&#x28f;" horiz-adv-x="488" 
d="M498 530l-183 -336v-194h-142v193l-182 337h151l105 -244l104 244h147z" />
    <glyph glyph-name="uni0290" unicode="&#x290;" horiz-adv-x="454" 
d="M562 -93l50 -85q-57 -42 -135 -42q-84 0 -132 46.5t-48 135.5v38h-281v102l249 319h-228v109h391v-101l-249 -319h254v-160q0 -64 58 -64q34 0 71 21z" />
    <glyph glyph-name="uni0291" unicode="&#x291;" horiz-adv-x="521" 
d="M539 141q0 -139 -204 -141q-5 -32 -5 -127h-86q0 70 6 127h-234v102l249 319h-228v109h391v-97l-253 -323h91q34 143 154 143q52 0 85.5 -30t33.5 -82zM409 176q-42 0 -58 -66q47 0 67 8t20 29q0 29 -29 29z" />
    <glyph glyph-name="uni0292" unicode="&#x292;" horiz-adv-x="503" 
d="M260 211q222 -11 222 -202q0 -101 -71 -165t-191 -64q-144 0 -229 100l76 73q67 -63 146 -63q57 0 89.5 32t32.5 95q0 57 -32.5 82t-100.5 25h-90v86l179 212h-263v108h424v-99z" />
    <glyph glyph-name="uni0293" unicode="&#x293;" horiz-adv-x="503" 
d="M482 11q0 -79 -43.5 -135t-126.5 -80l26 -54l-76 -29l-31 69q-26 -2 -41 -2q-104 0 -160.5 39t-56.5 110q0 56 35 88.5t90 32.5q56 0 92 -32.5t71 -113.5l2 -4q72 24 72 117q0 61 -32 86.5t-101 25.5h-90v86l181 207h-265v108h424v-99l-191 -215q221 -11 221 -205z
M75 -65q0 -24 24 -34.5t85 -10.5q-20 46 -35.5 62.5t-38.5 16.5q-35 0 -35 -34z" />
    <glyph glyph-name="uni0294" unicode="&#x294;" horiz-adv-x="469" 
d="M131 0v352l47 14q61 19 92 55t31 100q0 62 -29 96t-83 34q-68 0 -132 -58l-72 73q96 91 222 91q110 0 176 -64t66 -170q0 -90 -42.5 -138.5t-116.5 -75.5l-17 -7v-302h-142z" />
    <glyph glyph-name="uni0295" unicode="&#x295;" horiz-adv-x="469" 
d="M339 0h-142v302l-18 7q-74 27 -116.5 75.5t-42.5 138.5q0 105 69 169.5t178 64.5q124 0 217 -91l-71 -73q-64 58 -130 58q-54 0 -85 -35t-31 -97q0 -63 31.5 -98.5t92.5 -54.5l48 -14v-352z" />
    <glyph glyph-name="uni0296" unicode="&#x296;" horiz-adv-x="513" 
d="M146 741l142 15v-317l30 -5q156 -45 156 -214q0 -106 -66.5 -170.5t-176.5 -64.5q-127 0 -220 90l71 73q64 -57 133 -57q54 0 83 34t29 96q0 66 -29.5 102.5t-91.5 52.5l-60 13v352z" />
    <glyph glyph-name="uni0297" unicode="&#x297;" horiz-adv-x="490" 
d="M314 546q94 0 165 -64l-60 -82q-49 36 -99 36q-60 0 -90.5 -65t-30.5 -210q0 -143 30 -204.5t86 -61.5q48 0 101 37l63 -89q-76 -62 -168 -62q-126 0 -194 97.5t-68 280.5q0 184 69.5 285.5t195.5 101.5z" />
    <glyph glyph-name="uni0298" unicode="&#x298;" horiz-adv-x="796" 
d="M398 708q162 0 261 -97.5t99 -263.5q0 -163 -100 -263t-260 -100q-161 0 -260.5 98t-99.5 264q0 162 100 262t260 100zM398 607q-104 0 -162.5 -65t-58.5 -196q0 -132 59 -196t162 -64q105 0 163 64t58 197q0 130 -59.5 195t-161.5 65zM400 422q34 0 56.5 -21.5
t22.5 -53.5t-22.5 -53.5t-56.5 -21.5t-56 21.5t-22 53.5t22 53.5t56 21.5z" />
    <glyph glyph-name="uni0299" unicode="&#x299;" horiz-adv-x="558" 
d="M385 290q135 -15 135 -128q0 -82 -63 -122t-171 -40h-216v524q112 22 201 22q105 0 165 -36.5t60 -107.5q0 -92 -111 -112zM269 452q-27 0 -57 -3v-128h66q77 0 77 66q0 65 -86 65zM283 96q91 0 91 76q0 69 -90 69h-72v-145h71z" />
    <glyph glyph-name="uni029A" unicode="&#x29a;" horiz-adv-x="572" 
d="M274 -16q-107 0 -171.5 44.5t-64.5 125.5q0 57 35 87.5t105 41.5q-114 29 -114 116q0 67 59 107t153 40q121 0 189.5 -76t68.5 -205q0 -134 -66.5 -207.5t-193.5 -73.5zM275 87q63 0 89 41.5t26 136.5q0 94 -27.5 137.5t-84.5 43.5q-33 0 -52.5 -16t-19.5 -44
q0 -32 23.5 -48.5t62.5 -16.5h16l8 -95h-35q-99 0 -99 -65q0 -74 93 -74z" />
    <glyph glyph-name="uni029B" unicode="&#x29b;" 
d="M544 757q74 0 129 -38l-43 -89q-37 21 -69 21q-55 0 -55 -65v-111l-62 -69q-66 36 -129 36q-61 0 -95 -44t-34 -131q0 -97 27.5 -138t82.5 -41q41 0 81 16v108h-76l-13 96h223v-261q-92 -61 -216 -61q-126 0 -191.5 71.5t-65.5 210.5q0 125 74.5 201.5t182.5 76.5
q46 0 83 -14v58q0 81 42.5 124t123.5 43z" />
    <glyph glyph-name="uni029C" unicode="&#x29c;" horiz-adv-x="588" 
d="M376 0v216h-164v-216h-142v530h142v-207h164v207h142v-530h-142z" />
    <glyph glyph-name="uni029D" unicode="&#x29d;" horiz-adv-x="332" 
d="M189 637q-38 0 -62 23.5t-24 59.5t24 59.5t62 23.5t62.5 -23.5t24.5 -59.5t-24.5 -59.5t-62.5 -23.5zM364 -45l-27 -62q-32 14 -86 31q-34 -144 -191 -144q-68 0 -105.5 31t-37.5 84q0 61 41.5 94t113.5 33q19 0 47 -2v510h142v-509q0 -17 -1 -26q55 -16 104 -40z
M52 -142q33 0 48.5 21t17.5 68q-18 3 -46 3q-67 0 -67 -50q0 -42 47 -42z" />
    <glyph glyph-name="uni029E" unicode="&#x29e;" horiz-adv-x="542" 
d="M8 0l169 233l-184 297h161l171 -290l-170 -240h-147zM330 -204v734h142v-750z" />
    <glyph glyph-name="uni029F" unicode="&#x29f;" horiz-adv-x="447" 
d="M212 530v-419h225l-16 -111h-351v530h142z" />
    <glyph glyph-name="uni02A0" unicode="&#x2a0;" horiz-adv-x="599" 
d="M566 757q75 0 130 -38l-43 -89q-37 21 -69 21q-55 0 -55 -65v-806l-142 16v258q-55 -70 -143 -70q-98 0 -149.5 75.5t-51.5 205.5q0 124 58 202.5t154 78.5q85 0 132 -62v96q0 82 46.5 129.5t132.5 47.5zM287 90q59 0 100 64v237q-42 50 -91 50q-105 0 -105 -176
q0 -95 24.5 -135t71.5 -40z" />
    <glyph glyph-name="uni02A1" unicode="&#x2a1;" horiz-adv-x="469" 
d="M290 309l-17 -7v-82h99v-87h-99v-133h-142v133h-67v87h67v132l47 14q61 19 92 55t31 100q0 62 -29 96t-83 34q-68 0 -132 -58l-72 73q96 91 222 91q110 0 176 -64t66 -170q0 -90 -42.5 -138.5t-116.5 -75.5z" />
    <glyph glyph-name="uni02A2" unicode="&#x2a2;" horiz-adv-x="469" 
d="M283 651q-54 0 -85 -35t-31 -97q0 -63 31.5 -98.5t92.5 -54.5l48 -14v-132h67v-87h-67v-133h-142v133h-100v87h100v82l-18 7q-74 27 -116.5 75.5t-42.5 138.5q0 105 69 169.5t178 64.5q124 0 217 -91l-71 -73q-64 58 -130 58z" />
    <glyph glyph-name="uni02A3" unicode="&#x2a3;" horiz-adv-x="965" 
d="M684 110h261l-14 -110h-527l-8 65q-56 -81 -152 -81q-98 0 -149.5 75.5t-51.5 205.5q0 124 59 202.5t156 78.5q74 0 129 -53v264l142 -16v-211h411v-101zM286 90q58 0 101 64v237q-42 50 -92 50q-104 0 -104 -176q0 -175 95 -175zM529 421v-321l255 321h-255z" />
    <glyph glyph-name="uni02A4" unicode="&#x2a4;" horiz-adv-x="1003" 
d="M760 211q222 -11 222 -202q0 -101 -71 -165t-191 -64q-144 0 -229 100l76 73q67 -63 146 -63q57 0 89.5 32t32.5 95q0 57 -32.5 82t-100.5 25h-90v86l179 212h-262v-422h-125l-8 65q-56 -81 -152 -81q-98 0 -149.5 75.5t-51.5 205.5q0 124 59 202.5t156 78.5
q74 0 129 -53v264l142 -16v-211h423v-99zM286 90q58 0 101 64v237q-42 50 -92 50q-104 0 -104 -176q0 -175 95 -175z" />
    <glyph glyph-name="uni02A5" unicode="&#x2a5;" horiz-adv-x="1033" 
d="M1050 141q0 -140 -203 -141q-6 -38 -6 -127h-85q0 79 5 127h-357l-8 65q-56 -81 -152 -81q-98 0 -149.5 75.5t-51.5 205.5q0 124 59 202.5t156 78.5q74 0 129 -53v264l142 -16v-211h410v-97l-258 -323h97q33 143 153 143q53 0 86 -29.5t33 -82.5zM286 90q58 0 101 64v237
q-42 50 -92 50q-104 0 -104 -176q0 -175 95 -175zM529 421v-316l252 316h-252zM863 110q47 0 66.5 8t19.5 29q0 29 -28 29q-43 0 -58 -66z" />
    <glyph glyph-name="uni02A6" unicode="&#x2a6;" horiz-adv-x="733" 
d="M561 323q77 -25 112.5 -63t35.5 -96q0 -88 -80 -134t-228 -46q-164 0 -241 58.5t-77 178.5v209h-79v100h79v116l142 17v-133h98l-15 -100h-83v-206q0 -72 40.5 -103.5t136.5 -31.5q85 0 122.5 15.5t37.5 48.5q0 25 -17 41.5t-73 33.5q-81 25 -113.5 61t-32.5 97
q0 70 53.5 115t140.5 45q101 0 177 -62l-50 -80q-62 39 -120 39q-31 0 -49 -13.5t-18 -35.5t20.5 -37t80.5 -34z" />
    <glyph glyph-name="uni02A7" unicode="&#x2a7;" horiz-adv-x="587" 
d="M554 757q75 0 130 -38l-43 -89q-37 21 -69 21q-55 0 -55 -65v-624q0 -88 -50 -135t-135 -47q-81 0 -136 42l49 84q40 -20 72 -20q58 0 58 64v54q-53 -20 -105 -20q-187 1 -187 187v259h-79v100h79v116l142 17v-133h150v50q0 82 46.5 129.5t132.5 47.5zM297 97q40 0 78 8
v325h-150v-258q0 -40 17.5 -57.5t54.5 -17.5z" />
    <glyph glyph-name="uni02A8" unicode="&#x2a8;" horiz-adv-x="806" 
d="M670 250q55 0 90 -31.5t35 -85.5q0 -72 -52.5 -110.5t-134.5 -38.5q-105 0 -174 58q-102 -58 -180 -58q-171 1 -171 182v264h-79v100h79v116l142 17v-133h122l-14 -100h-108v-261q0 -39 14.5 -55.5t48.5 -16.5q39 0 89 19q-31 64 -31 145q0 127 68.5 206t183.5 79
q103 0 177 -64l-62 -85q-49 39 -104 39q-114 0 -114 -174q0 -46 9 -81q80 69 166 69zM625 89q67 0 67 47q0 33 -34 33q-43 0 -115 -55q29 -25 82 -25z" />
    <glyph glyph-name="uni02A9" unicode="&#x2a9;" horiz-adv-x="880" 
d="M667 546q70 0 109 -42.5t39 -117.5v-424q0 -88 -50 -135t-135 -47q-81 0 -136 42l49 84q40 -20 72 -20q58 0 58 64v412q0 43 -14.5 60.5t-43.5 17.5q-56 0 -102 -74v-366h-142v430h-141v-430h-142v430h-84v100h84v53q0 77 50.5 125.5t143.5 48.5q74 0 140 -32l-39 -94
q-43 20 -86 20q-36 0 -51.5 -17t-15.5 -55v-49h264l11 -67q67 83 162 83z" />
    <glyph glyph-name="uni02AA" unicode="&#x2aa;" horiz-adv-x="684" 
d="M357 -16q-156 0 -224 58.5t-68 166.5v532l142 16v-553q0 -62 35.5 -88.5t114.5 -26.5q166 0 166 64q0 24 -19 39.5t-81 35.5q-81 25 -113.5 61t-32.5 97q0 70 53.5 115t140.5 45q101 0 177 -62l-50 -80q-62 39 -120 39q-31 0 -48.5 -13.5t-17.5 -35.5t20.5 -37t79.5 -34
q78 -25 113.5 -63t35.5 -96q0 -88 -79 -134t-225 -46z" />
    <glyph glyph-name="uni02AB" unicode="&#x2ab;" horiz-adv-x="701" 
d="M680 110l-14 -110h-381q-35 -16 -83 -16q-65 0 -101 37.5t-36 106.5v613l142 16v-625q0 -35 29 -35q16 0 28 6l248 318h-228v109h391v-101l-252 -319h257z" />
    <glyph glyph-name="uni02AC" unicode="&#x2ac;" horiz-adv-x="468" 
d="M438 667l-62 -267h-100l-39 194l-41 -194h-100l-66 267h81l39 -205l44 205h90l41 -206l38 206h75zM438 267l-62 -267h-100l-39 194l-41 -194h-100l-66 267h81l39 -205l44 205h90l41 -206l38 206h75z" />
    <glyph glyph-name="uni02AD" unicode="&#x2ad;" horiz-adv-x="359" 
d="M30 400v161h299v-161h-87v85h-125v-85h-87zM30 0v161h299v-161h-87v85h-125v-85h-87z" />
    <glyph glyph-name="uni02AE" unicode="&#x2ae;" horiz-adv-x="694" 
d="M482 530h142v-750l-142 16v265q-65 -77 -154 -77q-70 0 -109.5 42.5t-39.5 118.5v233q0 64 -58 64q-32 0 -72 -20l-49 84q55 42 136 42q85 0 135 -47t50 -135v-197q0 -79 59 -79q54 0 102 74v366z" />
    <glyph glyph-name="uni02AF" unicode="&#x2af;" horiz-adv-x="694" 
d="M754 -94l49 -84q-55 -42 -136 -42q-85 0 -135 47t-50 135v99q-65 -77 -154 -77q-70 0 -109.5 42.5t-39.5 118.5v233q0 64 -58 64q-32 0 -72 -20l-49 84q55 42 136 42q85 0 135 -47t50 -135v-197q0 -79 59 -79q54 0 102 74v366h142v-580q0 -64 58 -64q32 0 72 20z" />
    <glyph glyph-name="uni02B0" unicode="&#x2b0;" horiz-adv-x="311" 
d="M197 673q39 0 61.5 -20.5t22.5 -59.5v-193h-81v177q0 35 -29 35q-24 0 -59 -28v-184h-82v372l82 9v-142q35 34 85 34z" />
    <glyph glyph-name="uni02B1" unicode="&#x2b1;" horiz-adv-x="311" 
d="M197 673q39 0 61.5 -20.5t22.5 -59.5v-193h-81v177q0 35 -29 35q-24 0 -59 -28v-184h-82v293q0 38 28.5 62t79.5 24q42 0 81 -16l-23 -53q-27 8 -49 8q-19 0 -27 -7t-8 -24v-48q35 34 85 34z" />
    <glyph glyph-name="uni02B2" unicode="&#x2b2;" horiz-adv-x="209" 
d="M129 807q23 0 36.5 -13.5t13.5 -33.5t-13.5 -33.5t-36.5 -13.5q-22 0 -36.5 13.5t-14.5 33.5t14.5 33.5t36.5 13.5zM170 665v-239q0 -60 -28.5 -88.5t-88.5 -46.5l-23 54q33 16 45.5 31t12.5 49v240h82z" />
    <glyph glyph-name="uni02B4" unicode="&#x2b4;" horiz-adv-x="247" 
d="M135 666h82v-266h-62l-15 56q-21 -63 -77 -63q-21 0 -33 5l13 75q11 -4 27 -4q26 0 40.5 19t24.5 57v121z" />
    <glyph glyph-name="uni02B7" unicode="&#x2b7;" horiz-adv-x="468" 
d="M438 667l-62 -267h-100l-39 194l-41 -194h-100l-66 267h81l39 -205l44 205h90l41 -206l38 206h75z" />
    <glyph glyph-name="uni02B8" unicode="&#x2b8;" horiz-adv-x="354" 
d="M324 667l-103 -270q-20 -53 -55.5 -79t-100.5 -33l-10 55q42 8 61 20.5t33 39.5h-25l-94 267h84l61 -215l68 215h81z" />
    <glyph glyph-name="uni02B9" unicode="&#x2b9;" horiz-adv-x="315" 
d="M51 417l81 275h133l-119 -275h-95z" />
    <glyph glyph-name="uni02BA" unicode="&#x2ba;" horiz-adv-x="498" 
d="M51 417l81 275h133l-119 -275h-95zM234 417l81 275h133l-119 -275h-95z" />
    <glyph glyph-name="uni02BB" unicode="&#x2bb;" horiz-adv-x="227" 
d="M110 586q-34 0 -57 22t-23 55q0 30 26 85l65 134h76l-41 -156q34 -24 34 -64q0 -32 -23.5 -54t-56.5 -22z" />
    <glyph glyph-name="uni02BC" unicode="&#x2bc;" horiz-adv-x="239" 
d="M120 763q34 0 57 -22t23 -55q0 -30 -26 -85l-65 -134h-76l41 156q-34 24 -34 64q0 32 23.5 54t56.5 22z" />
    <glyph glyph-name="uni02BF" unicode="&#x2bf;" horiz-adv-x="193" 
d="M163 609v74q-22 0 -34.5 13.5t-12.5 38.5q0 51 47 51v74q-59 0 -96 -36.5t-37 -88.5q0 -53 37 -89.5t96 -36.5z" />
    <glyph glyph-name="uni02C0" unicode="&#x2c0;" horiz-adv-x="286" 
d="M84 606v99q38 2 54.5 10.5t16.5 28.5q0 32 -40 32q-27 0 -60 -13l-25 62q44 26 105 26q57 0 89 -27t32 -72q0 -78 -84 -92v-54h-88z" />
    <glyph glyph-name="circumflex" unicode="&#x2c6;" horiz-adv-x="428" 
d="M82 624l-52 60l140 131h88l140 -131l-53 -60l-131 89z" />
    <glyph glyph-name="caron" unicode="&#x2c7;" horiz-adv-x="428" 
d="M346 806l52 -60l-140 -131h-88l-140 131l53 60l131 -89z" />
    <glyph glyph-name="uni02C8" unicode="&#x2c8;" horiz-adv-x="186" 
d="M30 621v255h126v-255h-126z" />
    <glyph glyph-name="uni02CA" unicode="&#x2ca;" horiz-adv-x="330" 
d="M244 827l56 -109l-230 -92l-40 73z" />
    <glyph glyph-name="uni02CB" unicode="&#x2cb;" horiz-adv-x="330" 
d="M87 827l213 -128l-40 -73l-230 92z" />
    <glyph glyph-name="uni02CC" unicode="&#x2cc;" horiz-adv-x="186" 
d="M30 -323v255h126v-255h-126z" />
    <glyph glyph-name="uni02CE" unicode="&#x2ce;" horiz-adv-x="330" 
d="M84 -43l216 -120l-36 -73l-234 85z" />
    <glyph glyph-name="uni02CF" unicode="&#x2cf;" horiz-adv-x="330" 
d="M246 -43l54 -108l-234 -85l-36 73z" />
    <glyph glyph-name="uni02D0" unicode="&#x2d0;" horiz-adv-x="234" 
d="M104 326l-70 170h165l-71 -170h-24zM104 170h24l71 -170h-165z" />
    <glyph glyph-name="uni02D1" unicode="&#x2d1;" horiz-adv-x="234" 
d="M104 325l-70 170h165l-71 -170h-24z" />
    <glyph glyph-name="uni02D4" unicode="&#x2d4;" horiz-adv-x="422" 
d="M370 261v-80h-318v80h113v151h91v-151h114z" />
    <glyph glyph-name="uni02D6" unicode="&#x2d6;" horiz-adv-x="481" 
d="M294 488v-140h135v-100h-135v-138h-108v138h-134v100h134v140h108z" />
    <glyph glyph-name="uni02D7" unicode="&#x2d7;" horiz-adv-x="473" 
d="M52 249v100h370v-100h-370z" />
    <glyph glyph-name="breve" unicode="&#x2d8;" horiz-adv-x="395" 
d="M197 635q-72 0 -116.5 45.5t-50.5 117.5l81 15q19 -78 86 -78q66 0 87 78l81 -15q-6 -72 -51 -117.5t-117 -45.5z" />
    <glyph glyph-name="dotaccent" unicode="&#x2d9;" horiz-adv-x="233" 
d="M116 803q38 0 62.5 -23.5t24.5 -59.5t-24.5 -59.5t-62.5 -23.5t-62 23.5t-24 59.5t24 59.5t62 23.5z" />
    <glyph glyph-name="ring" unicode="&#x2da;" horiz-adv-x="326" 
d="M163 860q59 0 96 -36.5t37 -88.5q0 -53 -37 -89.5t-96 -36.5t-96 36.5t-37 89.5q0 52 37 88.5t96 36.5zM163 786q-21 0 -34 -13.5t-13 -37.5q0 -25 12.5 -38.5t34.5 -13.5t34.5 13.5t12.5 38.5q0 24 -13 37.5t-34 13.5z" />
    <glyph glyph-name="ogonek" unicode="&#x2db;" horiz-adv-x="285" 
d="M265 46l22 -46q-120 -46 -120 -105q0 -46 54 -46q29 0 61 7l-10 -91q-37 -7 -68 -7q-63 0 -102.5 30.5t-39.5 81.5q0 64 52 106t151 70z" />
    <glyph glyph-name="tilde" unicode="&#x2dc;" horiz-adv-x="426" 
d="M271 640q-31 0 -66 23t-49 23q-28 0 -53 -45l-73 36q20 49 52 80t72 31q33 0 67.5 -23t48.5 -23q27 0 53 44l73 -36q-44 -110 -125 -110z" />
    <glyph glyph-name="hungarumlaut" unicode="&#x2dd;" horiz-adv-x="415" 
d="M115 853l101 -48l-109 -173l-77 32zM285 853l100 -50l-118 -176l-76 35z" />
    <glyph glyph-name="uni02DE" unicode="&#x2de;" horiz-adv-x="412" 
d="M304 308q-69 0 -108.5 33t-45.5 91v6l-117 -66v100l111 58h121v-62q0 -58 54 -58q30 0 66 17l42 -81q-51 -38 -123 -38z" />
    <glyph glyph-name="uni02E0" unicode="&#x2e0;" horiz-adv-x="356" 
d="M323 665l-104 -228q36 -50 36 -86q0 -28 -19.5 -44.5t-55.5 -16.5q-37 0 -57 16t-20 45q0 38 38 87l-106 227h85l60 -180l58 180h85zM193 355q0 16 -13 43q-14 -28 -14 -43q0 -14 14 -14q13 0 13 14z" />
    <glyph glyph-name="uni02E1" unicode="&#x2e1;" horiz-adv-x="186" 
d="M108 391q-78 0 -78 75v306l82 8v-311q0 -13 13 -13l15 3l16 -59q-25 -9 -48 -9z" />
    <glyph glyph-name="uni02E2" unicode="&#x2e2;" horiz-adv-x="308" 
d="M165 673q60 0 107 -34l-33 -46q-37 21 -72 21q-41 0 -41 -19q0 -10 11.5 -15.5t51.5 -14.5q51 -12 72.5 -31.5t21.5 -55.5q0 -37 -35 -62t-92 -25q-71 0 -124 39l39 44q42 -24 85 -24q46 0 46 24q0 12 -11.5 19t-53.5 16q-46 11 -68 30.5t-22 52.5q0 35 32 58t86 23z" />
    <glyph glyph-name="uni02E3" unicode="&#x2e3;" horiz-adv-x="348" 
d="M222 542l96 -142h-89l-57 99l-56 -99h-86l96 140l-86 125h88l47 -84l45 84h84z" />
    <glyph glyph-name="uni02E4" unicode="&#x2e4;" horiz-adv-x="327" 
d="M215 400h-82v144l-16 5q-45 14 -66 38t-21 70q0 56 40.5 89t105.5 33q64 0 121 -44l-41 -45q-41 26 -75 26q-32 0 -50.5 -15t-18.5 -44q0 -31 17 -45.5t56 -25.5l30 -8v-178z" />
    <glyph glyph-name="uni02E5" unicode="&#x2e5;" horiz-adv-x="363" 
d="M231 0v602h-201v90h303v-692h-102z" />
    <glyph glyph-name="uni02E6" unicode="&#x2e6;" horiz-adv-x="363" 
d="M231 692h102v-692h-102v452h-201v90h201v150z" />
    <glyph glyph-name="uni02E7" unicode="&#x2e7;" horiz-adv-x="363" 
d="M231 692h102v-692h-102v302h-201v90h201v300z" />
    <glyph glyph-name="uni02E8" unicode="&#x2e8;" horiz-adv-x="363" 
d="M231 692h102v-692h-102v152h-201v90h201v450z" />
    <glyph glyph-name="uni02E9" unicode="&#x2e9;" horiz-adv-x="363" 
d="M231 692h102v-692h-303v91h201v601z" />
    <glyph glyph-name="uni02EE" unicode="&#x2ee;" horiz-adv-x="402" 
d="M112 757q30 0 51 -20t21 -50q0 -27 -23 -76l-59 -121h-68l37 141q-31 21 -31 57q0 29 21 49t51 20zM291 757q31 0 51.5 -20t20.5 -50q0 -27 -23 -76l-59 -121h-68l37 141q-31 21 -31 57q0 29 21 49t51 20z" />
    <glyph glyph-name="gravecomb" unicode="&#x300;" horiz-adv-x="0" 
d="M-243 827l213 -128l-40 -73l-230 92z" />
    <glyph glyph-name="acutecomb" unicode="&#x301;" horiz-adv-x="0" 
d="M-86 827l56 -109l-230 -92l-40 73z" />
    <glyph glyph-name="uni0302" unicode="&#x302;" horiz-adv-x="0" 
d="M-346 624l-52 60l140 131h88l140 -131l-53 -60l-131 89z" />
    <glyph glyph-name="tildecomb" unicode="&#x303;" horiz-adv-x="0" 
d="M-155 640q-31 0 -66 23t-49 23q-28 0 -53 -45l-73 36q20 49 52 80t72 31q33 0 67.5 -23t48.5 -23q27 0 53 44l73 -36q-44 -110 -125 -110z" />
    <glyph glyph-name="uni0304" unicode="&#x304;" horiz-adv-x="0" 
d="M-30 658h-298v100h298v-100z" />
    <glyph glyph-name="uni0306" unicode="&#x306;" horiz-adv-x="0" 
d="M-198 635q-72 0 -116.5 45.5t-50.5 117.5l81 15q19 -78 86 -78q66 0 87 78l81 -15q-6 -72 -51 -117.5t-117 -45.5z" />
    <glyph glyph-name="uni0307" unicode="&#x307;" horiz-adv-x="0" 
d="M-117 803q38 0 62.5 -23.5t24.5 -59.5t-24.5 -59.5t-62.5 -23.5t-62 23.5t-24 59.5t24 59.5t62 23.5z" />
    <glyph glyph-name="uni0308" unicode="&#x308;" horiz-adv-x="0" 
d="M-332 792q32 0 53.5 -21.5t21.5 -52.5t-21.5 -52.5t-53.5 -21.5q-31 0 -53 21.5t-22 52.5t22 52.5t53 21.5zM-106 792q32 0 54 -21.5t22 -52.5t-22 -52.5t-54 -21.5q-31 0 -52.5 21.5t-21.5 52.5t21.5 52.5t52.5 21.5z" />
    <glyph glyph-name="hookabovecomb" unicode="&#x309;" horiz-adv-x="0" 
d="M-197 606v99q38 2 54.5 10.5t16.5 28.5q0 32 -40 32q-28 0 -60 -13l-25 62q44 26 105 26q57 0 89 -27t32 -72q0 -78 -84 -92v-54h-88z" />
    <glyph glyph-name="uni030A" unicode="&#x30a;" horiz-adv-x="0" 
d="M-163 860q59 0 96 -36.5t37 -88.5q0 -53 -37 -89.5t-96 -36.5t-96 36.5t-37 89.5q0 52 37 88.5t96 36.5zM-163 786q-21 0 -34 -13.5t-13 -37.5q0 -25 12.5 -38.5t34.5 -13.5t34.5 13.5t12.5 38.5q0 24 -13 37.5t-34 13.5z" />
    <glyph glyph-name="uni030B" unicode="&#x30b;" horiz-adv-x="0" 
d="M-300 853l101 -48l-109 -173l-77 32zM-130 853l100 -50l-118 -176l-76 35z" />
    <glyph glyph-name="uni030C" unicode="&#x30c;" horiz-adv-x="0" 
d="M-82 806l52 -60l-140 -131h-88l-140 131l53 60l131 -89z" />
    <glyph glyph-name="uni030D" unicode="&#x30d;" horiz-adv-x="0" 
d="M-156 621v255h126v-255h-126z" />
    <glyph glyph-name="uni030F" unicode="&#x30f;" horiz-adv-x="0" 
d="M-286 853l95 -191l-76 -35l-118 176zM-116 853l86 -189l-77 -32l-109 173z" />
    <glyph glyph-name="uni0311" unicode="&#x311;" horiz-adv-x="0" 
d="M-198 782q72 0 117 -45.5t51 -117.5l-81 -15q-21 78 -87 78q-67 0 -86 -78l-81 15q6 72 50.5 117.5t116.5 45.5z" />
    <glyph glyph-name="uni0312" unicode="&#x312;" horiz-adv-x="0" 
d="M-107 578q-31 0 -52 20.5t-21 51.5q0 28 26 83l46 93h72l-27 -115q30 -25 30 -61q0 -30 -21 -51t-53 -21z" />
    <glyph glyph-name="uni0313" unicode="&#x313;" horiz-adv-x="0" 
d="M-103 831q31 0 52 -20.5t21 -51.5q0 -28 -26 -83l-46 -93h-72l27 115q-30 25 -30 61q0 30 21 51t53 21z" />
    <glyph glyph-name="uni0316" unicode="&#x316;" horiz-adv-x="0" 
d="M-246 -43l216 -120l-36 -73l-234 85z" />
    <glyph glyph-name="uni0317" unicode="&#x317;" horiz-adv-x="0" 
d="M-84 -43l54 -108l-234 -85l-36 73z" />
    <glyph glyph-name="uni0318" unicode="&#x318;" horiz-adv-x="0" 
d="M-117 -59h87v-295h-87v108h-126v78h126v109z" />
    <glyph glyph-name="uni0319" unicode="&#x319;" horiz-adv-x="0" 
d="M-156 -59v-109h126v-78h-126v-108h-87v295h87z" />
    <glyph glyph-name="uni031A" unicode="&#x31a;" horiz-adv-x="0" 
d="M-234 796h204v-201h-87v123h-117v78z" />
    <glyph glyph-name="uni031B" unicode="&#x31b;" horiz-adv-x="0" 
d="M-173 400l-10 72q52 4 52 53q0 37 -13 69l95 15q19 -36 19 -87q0 -59 -37.5 -89.5t-105.5 -32.5z" />
    <glyph glyph-name="uni031C" unicode="&#x31c;" horiz-adv-x="0" 
d="M-30 -305v74q-22 0 -34.5 13.5t-12.5 38.5q0 51 47 51v74q-59 0 -96 -36.5t-37 -88.5q0 -53 37 -89.5t96 -36.5z" />
    <glyph glyph-name="uni031D" unicode="&#x31d;" horiz-adv-x="0" 
d="M-31 -239v-80h-318v80h113v151h91v-151h114z" />
    <glyph glyph-name="uni031E" unicode="&#x31e;" horiz-adv-x="0" 
d="M-31 -168h-114v-151h-91v151h-113v80h318v-80z" />
    <glyph glyph-name="uni031F" unicode="&#x31f;" horiz-adv-x="0" 
d="M-122 -79v-88h92v-82h-92v-87h-94v87h-91v82h91v88h94z" />
    <glyph glyph-name="uni0320" unicode="&#x320;" horiz-adv-x="0" 
d="M-307 -249v82h276v-82h-276z" />
    <glyph glyph-name="uni0321" unicode="&#x321;" horiz-adv-x="0" 
d="M-215 -220q-81 0 -136 42l49 84q40 -20 72 -20q58 0 58 64v51h142v-39q0 -88 -50 -135t-135 -47z" />
    <glyph glyph-name="dotbelowcomb" unicode="&#x323;" horiz-adv-x="0" 
d="M-116 -230q-38 0 -62.5 23.5t-24.5 59.5t24.5 59.5t62.5 23.5t62 -23.5t24 -59.5t-24 -59.5t-62 -23.5z" />
    <glyph glyph-name="uni0324" unicode="&#x324;" horiz-adv-x="0" 
d="M-332 -71q32 0 53.5 -21.5t21.5 -52.5t-21.5 -52.5t-53.5 -21.5q-31 0 -53 21.5t-22 52.5t22 52.5t53 21.5zM-106 -71q32 0 54 -21.5t22 -52.5t-22 -52.5t-54 -21.5q-31 0 -52.5 21.5t-21.5 52.5t21.5 52.5t52.5 21.5z" />
    <glyph glyph-name="uni0325" unicode="&#x325;" horiz-adv-x="0" 
d="M-163 -54q59 0 96 -36.5t37 -88.5q0 -53 -37 -89.5t-96 -36.5t-96 36.5t-37 89.5q0 52 37 88.5t96 36.5zM-163 -128q-21 0 -34 -13.5t-13 -37.5q0 -25 12.5 -38.5t34.5 -13.5t34.5 13.5t12.5 38.5q0 24 -13 37.5t-34 13.5z" />
    <glyph glyph-name="uni0326" unicode="&#x326;" horiz-adv-x="0" 
d="M-103 -70q31 0 52 -20.5t21 -51.5q0 -28 -26 -83l-46 -93h-72l27 115q-30 25 -30 61q0 30 21 51t53 21z" />
    <glyph glyph-name="uni0327" unicode="&#x327;" horiz-adv-x="0" 
d="M-131 16v-66q51 -5 76 -30.5t25 -65.5q0 -50 -39.5 -80.5t-103.5 -30.5q-66 0 -107 29l33 68q31 -17 64 -17q48 0 48 32q0 36 -92 36l16 125h80z" />
    <glyph glyph-name="uni0328" unicode="&#x328;" horiz-adv-x="0" 
d="M-52 46l22 -46q-120 -46 -120 -105q0 -46 54 -46q29 0 61 7l-10 -91q-37 -7 -68 -7q-63 0 -102.5 30.5t-39.5 81.5q0 64 52 106t151 70z" />
    <glyph glyph-name="uni0329" unicode="&#x329;" horiz-adv-x="0" 
d="M-162 -323v255h126v-255h-126z" />
    <glyph glyph-name="uni032A" unicode="&#x32a;" horiz-adv-x="0" 
d="M-329 -249v161h299v-161h-87v85h-125v-85h-87z" />
    <glyph glyph-name="uni032B" unicode="&#x32b;" horiz-adv-x="0" 
d="M-91 -56l61 -7q-4 -70 -33.5 -113t-78.5 -43q-65 0 -94 76q-31 -76 -95 -76q-48 0 -77.5 43t-33.5 113l60 7q11 -68 53 -68q43 0 54 68h78q11 -68 53 -68q44 0 53 68z" />
    <glyph glyph-name="uni032C" unicode="&#x32c;" horiz-adv-x="0" 
d="M-82 -64l52 -60l-140 -124h-88l-140 124l53 60l131 -83z" />
    <glyph glyph-name="uni032D" unicode="&#x32d;" horiz-adv-x="0" 
d="M-346 -255l-52 60l140 131h88l140 -131l-53 -60l-131 89z" />
    <glyph glyph-name="uni032F" unicode="&#x32f;" horiz-adv-x="0" 
d="M-198 -47q72 0 117 -45.5t51 -117.5l-81 -15q-21 78 -87 78q-67 0 -86 -78l-81 15q6 72 50.5 117.5t116.5 45.5z" />
    <glyph glyph-name="uni0330" unicode="&#x330;" horiz-adv-x="0" 
d="M-155 -205q-31 0 -66 23t-49 23q-28 0 -53 -45l-73 36q20 49 52 80t72 31q33 0 67.5 -23t48.5 -23q27 0 53 44l73 -36q-44 -110 -125 -110z" />
    <glyph glyph-name="uni0331" unicode="&#x331;" horiz-adv-x="0" 
d="M-30 -187h-298v100h298v-100z" />
    <glyph glyph-name="uni0332" unicode="&#x332;" horiz-adv-x="0" 
d="M-30 -187h-447v100h447v-100z" />
    <glyph glyph-name="uni0334" unicode="&#x334;" horiz-adv-x="0" 
d="M-183 236q-49 0 -98 30.5t-68 30.5q-16 0 -30 -8.5t-21.5 -17.5t-18.5 -26l-77 39q59 120 155 120q29 0 55 -9.5t41.5 -21t34.5 -21t35 -9.5q15 0 28.5 7.5t21.5 16t19 24.5l76 -38q-57 -117 -153 -117z" />
    <glyph glyph-name="uni0335" unicode="&#x335;" horiz-adv-x="0" 
d="M-358 257v112h310v-112h-310z" />
    <glyph glyph-name="uni0336" unicode="&#x336;" horiz-adv-x="0" 
d="M-777 257v112h747v-112h-747z" />
    <glyph glyph-name="uni0339" unicode="&#x339;" horiz-adv-x="0" 
d="M-163 -304q59 0 96 36.5t37 89.5q0 52 -37 88.5t-96 36.5v-74q47 0 47 -51q0 -25 -12.5 -38.5t-34.5 -13.5v-74z" />
    <glyph glyph-name="uni033A" unicode="&#x33a;" horiz-adv-x="0" 
d="M-329 -88h87v-85h125v85h87v-161h-299v161z" />
    <glyph glyph-name="uni033B" unicode="&#x33b;" horiz-adv-x="0" 
d="M-329 -248v185h299v-185h-299zM-257 -187h155v63h-155v-63z" />
    <glyph glyph-name="uni033C" unicode="&#x33c;" horiz-adv-x="0" 
d="M-142 -57q49 0 78.5 -43t33.5 -113l-61 -7q-9 68 -53 68q-42 0 -53 -68h-78q-11 68 -54 68q-42 0 -53 -68l-60 7q4 70 33.5 113t77.5 43q64 0 95 -76q29 76 94 76z" />
    <glyph glyph-name="uni033D" unicode="&#x33d;" horiz-adv-x="0" 
d="M-126 728l96 -128h-89l-57 89l-56 -89h-86l96 126l-86 112h88l47 -75l45 75h84z" />
    <glyph glyph-name="uni0342" unicode="&#x342;" horiz-adv-x="0" 
d="M-155 640q-31 0 -66 23t-49 23q-28 0 -53 -45l-73 36q20 49 52 80t72 31q33 0 67.5 -23t48.5 -23q27 0 53 44l73 -36q-44 -110 -125 -110z" />
    <glyph glyph-name="uni0345" unicode="&#x345;" horiz-adv-x="0" 
d="M-139 -200q-60 0 -93.5 33.5t-33.5 88.5v37h104v-34q0 -42 41 -42q23 0 52 16l39 -62q-46 -37 -109 -37z" />
    <glyph glyph-name="uni035C" unicode="&#x35c;" horiz-adv-x="0" 
d="M339 -94q-159 -127 -339 -127q-179 0 -340 127l48 67q134 -76 292 -76q157 0 291 76z" />
    <glyph glyph-name="uni0361" unicode="&#x361;" horiz-adv-x="0" 
d="M338 681l-48 -67q-134 76 -291 76q-158 0 -292 -76l-48 67q161 127 340 127q180 0 339 -127z" />
    <glyph glyph-name="uni0370" unicode="&#x370;" horiz-adv-x="522" 
d="M509 303h-289v-303h-147v692h147v-273h289v-116z" />
    <glyph glyph-name="uni0371" unicode="&#x371;" horiz-adv-x="477" 
d="M457 327v-112h-240v-215h-142v376q0 79 -23 150l131 17q34 -66 34 -199v-17h240z" />
    <glyph glyph-name="uni0372" unicode="&#x372;" horiz-adv-x="635" 
d="M10 692h615v-307h-126v194h-108v-579h-147v579h-108v-195h-126v308z" />
    <glyph glyph-name="uni0373" unicode="&#x373;" horiz-adv-x="505" 
d="M503 530v-107h-177v-627l-142 -16v642h-76q-53 0 -90 -11l-25 98q49 21 137 21h373z" />
    <glyph glyph-name="uni0374" unicode="&#x374;" horiz-adv-x="315" 
d="M51 417l81 275h133l-119 -275h-95z" />
    <glyph glyph-name="uni0375" unicode="&#x375;" horiz-adv-x="315" 
d="M264 142l-81 -275h-133l119 275h95z" />
    <glyph glyph-name="uni0376" unicode="&#x376;" horiz-adv-x="668" 
d="M595 692v-692h-145v278q0 142 21 266l-218 -544h-180v692h145v-281q0 -126 -21 -262l222 543h176z" />
    <glyph glyph-name="uni0377" unicode="&#x377;" horiz-adv-x="592" 
d="M517 170q0 -36 9 -53t35 -29l-43 -104q-135 31 -135 160q0 45 11.5 133t21.5 132l-197 -409h-149v530h136v-203q0 -113 -18 -187l190 390h139v-360z" />
    <glyph glyph-name="uni037A" unicode="&#x37a;" horiz-adv-x="345" 
d="M157 -200q-60 0 -93.5 33.5t-33.5 88.5v37h104v-34q0 -42 41 -42q23 0 52 16l39 -62q-46 -37 -109 -37z" />
    <glyph glyph-name="uni037B" unicode="&#x37b;" horiz-adv-x="512" 
d="M210 546q123 0 193.5 -76t70.5 -209q0 -129 -73.5 -203t-198.5 -74q-105 0 -191 62l62 87q64 -35 120 -35q132 0 132 164q0 174 -124 174q-68 0 -128 -38l-62 84q89 64 199 64z" />
    <glyph glyph-name="uni037C" unicode="&#x37c;" horiz-adv-x="512" 
d="M309 546q109 0 192 -64l-62 -84q-60 38 -119 38q-62 0 -97 -43t-35 -131q0 -164 131 -164q58 0 120 35l62 -87q-86 -62 -191 -62q-125 0 -198.5 74t-73.5 203q0 126 75 205.5t196 79.5zM330 339q34 0 56.5 -21.5t22.5 -53.5t-22.5 -53.5t-56.5 -21.5t-56 21.5t-22 53.5
t22 53.5t56 21.5z" />
    <glyph glyph-name="uni037D" unicode="&#x37d;" horiz-adv-x="512" 
d="M210 546q123 0 193.5 -76t70.5 -209q0 -129 -73.5 -203t-198.5 -74q-105 0 -191 62l62 87q64 -35 120 -35q132 0 132 164q0 174 -124 174q-68 0 -128 -38l-62 84q89 64 199 64zM183 339q34 0 56.5 -21.5t22.5 -53.5t-22.5 -53.5t-56.5 -21.5t-56 21.5t-22 53.5t22 53.5
t56 21.5z" />
    <glyph glyph-name="uni037E" unicode="&#x37e;" horiz-adv-x="240" 
d="M119 506q36 0 61 -25t25 -60t-25 -60.5t-61 -25.5q-35 0 -60 25.5t-25 60.5t25 60t60 25zM119 155q37 0 61.5 -24.5t24.5 -60.5q0 -33 -28 -98l-65 -146h-83l42 174q-37 24 -37 70q0 36 24.5 60.5t60.5 24.5z" />
    <glyph glyph-name="uni037F" unicode="&#x37f;" horiz-adv-x="314" 
d="M245 692v-589q0 -115 -55.5 -173.5t-157.5 -91.5l-39 105q64 25 84.5 61t20.5 104v584h147z" />
    <glyph glyph-name="tonos" unicode="&#x384;" horiz-adv-x="202" 
d="M32 829l140 -11l-43 -222h-93z" />
    <glyph glyph-name="dieresistonos" unicode="&#x385;" horiz-adv-x="460" 
d="M187 939l121 -9l-37 -192h-80zM105 754q31 0 53 -21.5t22 -51.5q0 -31 -21.5 -52.5t-53.5 -21.5t-53.5 21.5t-21.5 52.5q0 30 22 51.5t53 21.5zM355 754q31 0 53 -21.5t22 -51.5q0 -31 -21.5 -52.5t-53.5 -21.5t-53.5 21.5t-21.5 52.5q0 30 22 51.5t53 21.5z" />
    <glyph glyph-name="Alphatonos" unicode="&#x386;" horiz-adv-x="668" 
d="M173 470h-93l-4 233l140 -11zM521 0l-39 155h-217l-39 -155h-153l213 692h179l212 -692h-156zM293 264h161l-81 319z" />
    <glyph glyph-name="anoteleia" unicode="&#x387;" horiz-adv-x="240" 
d="M119 394q36 0 61 -25t25 -60t-25 -60.5t-61 -25.5q-35 0 -60 25.5t-25 60.5t25 60t60 25z" />
    <glyph glyph-name="Epsilontonos" unicode="&#x388;" horiz-adv-x="696" 
d="M69 703l140 -11l-43 -222h-93zM654 692l-16 -107h-250v-180h218v-106h-218v-191h268v-108h-415v692h413z" />
    <glyph glyph-name="Etatonos" unicode="&#x389;" horiz-adv-x="838" 
d="M69 703l140 -11l-43 -222h-93zM617 0v303h-229v-303h-147v692h147v-273h229v273h147v-692h-147z" />
    <glyph glyph-name="Iotatonos" unicode="&#x38a;" horiz-adv-x="462" 
d="M69 703l140 -11l-43 -222h-93zM388 692v-692h-147v692h147z" />
    <glyph glyph-name="Omicrontonos" unicode="&#x38c;" horiz-adv-x="819" 
d="M474 708q144 0 225.5 -94.5t81.5 -267.5q0 -170 -82 -266t-225 -96q-144 0 -226 95t-82 267q0 169 82.5 265.5t225.5 96.5zM65 703l140 -11l-43 -222h-93zM474 598q-76 0 -114.5 -60t-38.5 -192q0 -252 153 -252q76 0 114 59.5t38 192.5t-38 192.5t-114 59.5z" />
    <glyph glyph-name="Upsilontonos" unicode="&#x38e;" horiz-adv-x="817" 
d="M70 703l140 -11l-43 -222h-93zM821 692l-222 -431v-261h-147v260l-222 432h161l138 -314l137 314h155z" />
    <glyph glyph-name="Omegatonos" unicode="&#x38f;" horiz-adv-x="834" 
d="M489 708q142 0 224.5 -92.5t82.5 -243.5q0 -96 -32 -159.5t-102 -103.5h112v-109h-244v105q64 25 87.5 86.5t23.5 180.5q0 226 -152 226q-153 0 -153 -227q0 -120 24 -179.5t86 -86.5v-105h-244v109h110q-131 73 -131 262q0 150 83.5 243.5t224.5 93.5zM59 703l140 -11
l-43 -222h-93z" />
    <glyph glyph-name="iotadieresistonos" unicode="&#x390;" horiz-adv-x="282" 
d="M92 939l121 -9l-37 -192h-80zM10 754q31 0 53 -21.5t22 -51.5q0 -31 -21.5 -52.5t-53.5 -21.5t-53.5 21.5t-21.5 52.5q0 30 22 51.5t53 21.5zM260 754q31 0 53 -21.5t22 -51.5q0 -31 -21.5 -52.5t-53.5 -21.5t-53.5 21.5t-21.5 52.5q0 30 22 51.5t53 21.5zM207 530v-360
q0 -36 9.5 -53.5t34.5 -29.5l-42 -103q-74 15 -109 54t-35 114v378h142z" />
    <glyph glyph-name="Alpha" unicode="&#x391;" horiz-adv-x="586" 
d="M439 0l-39 155h-217l-39 -155h-153l213 692h179l212 -692h-156zM211 264h161l-81 319z" />
    </font>
</defs>
</svg>
